<?xml version="1.0" standalone="no"?>
<!DOCTYPE svg PUBLIC "-//W3C//DTD SVG 1.1//EN" "http://www.w3.org/Graphics/SVG/1.1/DTD/svg11.dtd" >
<!--
2013-9-30: Created.
-->
<svg>
<metadata>
Created by iconfont
</metadata>
<defs>

<font id="kod-svg-font" horiz-adv-x="1024" >
  <font-face
    font-family="kod-svg-font"
    font-weight="500"
    font-stretch="normal"
    units-per-em="1024"
    ascent="896"
    descent="-128"
  />
    <missing-glyph />
    
    <glyph glyph-name="group-root" unicode="&#59015;" d="M223.46752 274.48832000000004v0.1536H149.62176c-38.5536 0-69.91872-31.36512-69.91872-69.9136v-170.7776c0-38.54848 31.36512-69.9136 69.91872-69.9136h198.00576c38.5536 0 69.9136 31.36512 69.9136 69.9136v170.7776c0 38.54848-31.36 69.9136-69.9136 69.9136h-75.008v-0.1536h-49.152z m124.16-48.99328a20.7872 20.7872 0 0 0 20.76672-20.76672v-170.7776a20.7872 20.7872 0 0 0-20.76672-20.76672H149.62176a20.7872 20.7872 0 0 0-20.76672 20.76672v170.7776a20.79232 20.79232 0 0 0 20.76672 20.76672h198.00576zM541.41952 496.68608v-0.01024h69.58592c38.54848 0 69.9136 31.36 69.9136 69.9136V737.36704c0 38.5536-31.36512 69.91872-69.9136 69.91872H412.99968c-38.5536 0-69.91872-31.36512-69.91872-69.91872v-170.77248c0-38.5536 31.36512-69.9136 69.91872-69.9136h79.78496v0.01024h48.63488z m-128.41984 49.13664a20.7872 20.7872 0 0 0-20.77184 20.76672V737.36704a20.79744 20.79744 0 0 0 20.77184 20.77184h198.00576a20.79232 20.79232 0 0 0 20.76672-20.77184v-170.77248a20.7872 20.7872 0 0 0-20.76672-20.76672H412.99968zM878.35136 274.64703999999995H803.584v-0.1536h-49.65888v0.1536h-73.5744c-38.5536 0-69.91872-31.36512-69.91872-69.91872v-170.77248c0-38.54848 31.36512-69.9136 69.91872-69.9136h198.00064c38.54848 0 69.9136 31.36512 69.9136 69.9136v170.77248c0 38.5536-31.36512 69.91872-69.9136 69.91872z m20.7616-240.69632a20.7872 20.7872 0 0 0-20.76672-20.76672H680.3456a20.79232 20.79232 0 0 0-20.77184 20.76672v170.77248a20.79744 20.79744 0 0 0 20.77184 20.77184h198.00064a20.79232 20.79232 0 0 0 20.76672-20.77184v-170.77248zM803.584 274.48832000000004v0.15872l0.01024 126.62272h-262.17472V496.68608h-48.63488v-0.01024l0.19456-95.45216-269.51168 0.04608v-126.78144h49.152v77.63968h481.46432l-0.15872-77.48096v-0.15872zM128.85504 33.95072000000005a20.7872 20.7872 0 0 1 20.77184-20.7616h198.00576a20.7872 20.7872 0 0 1 20.76672 20.7616v170.77248a20.7872 20.7872 0 0 1-20.76672 20.77184H149.62688a20.79744 20.79744 0 0 1-20.77184-20.77184v-170.77248M659.57888 33.95072000000005a20.7872 20.7872 0 0 1 20.77184-20.7616h198.00576a20.7872 20.7872 0 0 1 20.76672 20.7616v170.77248a20.7872 20.7872 0 0 1-20.76672 20.77184h-198.00576a20.79744 20.79744 0 0 1-20.77184-20.77184v-170.77248"  horiz-adv-x="1024" />

    
    <glyph glyph-name="folder-share" unicode="&#58938;" d="M985.6 649.6c-9.6 9.6-21.6 14.4-33.6 14.4H480L374.4 769.6c-4 4-9.6 8-15.2 10.4-6.4 2.4-12 4-18.4 4H88c-12 0-24.8-4.8-33.6-14.4S40 748 40 736v-280h960V616c0 12-4.8 24.8-14.4 33.6zM952-24H88c-26.4 0-48 21.6-48 48V536h960v-512c0-26.4-21.6-48-48-48zM664 160c-19.2 0-36.8-8.8-48-22.4L406.4 242.4c0.8 4 1.6 8.8 1.6 13.6s-0.8 8.8-1.6 13.6L616 374.4c12-13.6 28.8-22.4 48-22.4 35.2 0 64 28.8 64 64s-28.8 64-64 64-64-28.8-64-64c0-4.8 0.8-8.8 1.6-13.6L392 297.6c-12 13.6-28.8 22.4-48 22.4-35.2 0-64-28.8-64-64s28.8-64 64-64c19.2 0 36.8 8.8 48 22.4l209.6-104.8c-0.8-4-1.6-8.8-1.6-13.6 0-35.2 28.8-64 64-64s64 28.8 64 64-28.8 64-64 64z"  horiz-adv-x="1024" />

    
    <glyph glyph-name="tubiaozhizuomoban-" unicode="&#58939;" d="M791.3-128H232.7C104.7-128 0-23.3 0 104.7V663.2C0 791.3 104.7 896 232.7 896h558.5c128 0 232.7-104.7 232.7-232.7v-558.5c0.1-128.1-104.6-232.8-232.6-232.8zM560.5 208c-0.5-4.2-1.3-8.4-1.3-12.7 0-65.2 52.8-118 118-118s118 52.8 118 118-52.8 118-118 118c-41.8 0-78.2-21.8-99.2-54.5L451.7 331c8.2 16 13.2 33.9 13.2 53.1 0 11.9-2.3 23.1-5.5 33.9l131.3 75c21.6-23.4 52.2-38.2 86.5-38.2 65.2 0 118 52.8 118 118s-52.8 118-118 118-118-52.8-118-118c0-11.9 2.3-23.1 5.5-33.9l-131.4-75.1c-21.6 23.4-52.2 38.2-86.5 38.2-65.2 0-118-52.8-118-118s52.8-118 118-118c26.9 0 51.4 9.4 71.2 24.5L560.5 208z"  horiz-adv-x="1024" />

    
    <glyph glyph-name="FTP" unicode="&#58940;" d="M512 384m-512 0a512 512 0 1 1 1024 0 512 512 0 1 1-1024 0ZM766.72 95.36h-512a53.12 53.12 0 0 0-55.68 52.48v60.16a52.48 52.48 0 0 0 55.68 52.48h512a53.12 53.12 0 0 0 55.68-52.48v-60.16a51.2 51.2 0 0 0-53.76-52.48z m-64 122.24a39.68 39.68 0 0 1-39.04-39.04 38.4 38.4 0 0 1 39.04-39.04 40.96 40.96 0 0 1 39.04 40.96 40.32 40.32 0 0 1-39.04 37.76z m64 83.2h-512a53.12 53.12 0 0 0-55.68 52.48v60.16a52.48 52.48 0 0 0 55.68 52.48h512a52.48 52.48 0 0 0 55.68-52.48v-60.16a51.84 51.84 0 0 0-55.68-52.48z m-64 122.24a38.4 38.4 0 0 1-39.04-39.04 39.68 39.68 0 0 1 39.04-39.04 38.4 38.4 0 0 1 43.52 39.04 37.76 37.76 0 0 1-39.04 39.04z m64 83.2h-512a53.12 53.12 0 0 0-55.68 52.48v64a52.48 52.48 0 0 0 55.68 52.48h512a53.12 53.12 0 0 0 55.68-52.48v-60.16a52.48 52.48 0 0 0-53.76-53.76z m-64 124.16a39.04 39.04 0 1 1 0-78.08 39.68 39.68 0 0 1 39.04 39.04 38.4 38.4 0 0 1-39.04 39.04z m0 0M702.08 382.08m-53.12 0a53.12 53.12 0 1 1 106.24 0 53.12 53.12 0 1 1-106.24 0ZM396.16 318.72h17.92v51.84h40.32v14.72h-40.32v35.84h42.88v14.72h-60.8v-117.12zM465.92 421.12h31.36v-102.4h17.92v102.4h31.36v14.72H465.92v-14.72zM620.8 427.52a47.36 47.36 0 0 1-32 9.6 165.76 165.76 0 0 1-28.8 0V320h14.72v44.8h12.8c21.12 0 43.52 9.6 43.52 38.4a32.64 32.64 0 0 1-10.24 24.32z m-33.28-49.28h-12.8v43.52h12.16c14.08 0 24.32-7.04 24.32-21.76s-7.04-21.76-23.68-21.76z"  horiz-adv-x="1024" />

    
    <glyph glyph-name="share-link-self" unicode="&#58941;" d="M923.73333333 604.8L713.53333333 767.3c-44 34-107.9 2.6-107.9-53v-45c-188.9-1.3-341.9-159.8-341.9-356 0-42.7 7.1-80.7 19-118.7C330.13333333 332.29999999999995 456.03333333 432 605.53333333 432v-42.7c0-55.6 63.9-87 107.9-53l210.3 162.5c34.7 26.8 34.7 79.2 0 106zM768.3-5.899999999999977H257.7c-93.1 0-168.5 75.5-168.5 168.5V542.4c0 93.1 75.5 168.5 168.5 168.5h49.6c26.6 0 48.1-21.5 48.1-48.1s-21.5-48.1-48.1-48.1h-49.6c-40 0-72.4-32.4-72.4-72.4v-379.8c0-40 32.4-72.4 72.4-72.4h510.5c40 0 72.4 32.4 72.4 72.4v132c0 26.6 21.5 48.1 48.1 48.1s48.1-21.5 48.1-48.1v-132c0-93-75.5-168.4-168.5-168.4z"  horiz-adv-x="1024" />

    
    <glyph glyph-name="empty_add" unicode="&#58970;" d="M1052.16 458.410667l-121.685333 172.544c-3.413333 4.949333-9.216 7.850667-15.189334 7.850666h-465.92c-5.973333 0-11.605333-2.901333-15.018666-7.850666l-122.88-172.544c-2.218667-3.242667-3.413333-6.997333-3.413334-10.922667v-350.549333c0-10.24 8.192-18.602667 18.432-18.773334h710.314667c10.24 0.170667 18.602667 8.533333 18.432 18.773334V447.658667c0.341333 3.754667-0.682667 7.68-3.072 10.752zM705.536 743.253333H453.12c-12.8 0-23.210667-10.24-23.210667-23.210666V302.08c0-12.8 10.24-23.210667 23.210667-23.210667h455.68c12.8 0 23.210667 10.24 23.210667 23.210667V604.672c0 12.8-10.24 23.210667-23.210667 23.210667h-129.024c-9.728-0.170667-18.261333 5.973333-21.674667 15.189333l-30.890666 85.162667c-3.413333 9.045333-12.117333 15.018667-21.674667 15.018666zM780.117333 489.301333h-82.261333v82.090667c0 8.362667-6.826667 15.018667-15.018667 15.018667-8.362667 0-15.018667-6.826667-15.018666-15.018667v-82.261333h-82.261334c-8.362667 0-15.018667-6.826667-15.018666-15.018667 0-8.362667 6.826667-15.018667 15.018666-15.018667h82.261334v-82.261333c0-8.362667 6.826667-15.018667 15.018666-15.018667 8.362667 0 15.018667 6.826667 15.018667 15.018667V459.093333h82.261333c8.362667 0 15.018667 6.826667 15.018667 15.018667 0 8.533333-6.826667 15.189333-15.018667 15.189333zM681.813333 11.776c396.288 0 435.2 29.696 435.2 66.56s-38.912 66.56-435.2 66.56-435.2-29.696-435.2-66.56 38.912-66.56 435.2-66.56zM530.773333 413.013333l13.824-53.930666c6.144-24.064 30.378667-43.008 54.954667-43.008h164.352c24.576 0 48.64 18.944 54.954667 43.008l13.824 53.930666c1.536 5.802667 9.045333 11.776 15.189333 11.776h207.701333v-328.704c0-9.728-8.021333-17.749333-17.749333-17.749333H325.973333c-9.728 0-17.749333 8.021333-17.749333 17.749333V424.789333h207.872c5.802667 0 13.482667-5.802667 14.677333-11.776z"  horiz-adv-x="1365" />

    
    <glyph glyph-name="share-link-self-blue" unicode="&#60182;" d="M923.73333333 604.8L713.53333333 767.3c-44 34-107.9 2.6-107.9-53v-45c-188.9-1.3-341.9-159.8-341.9-356 0-42.7 7.1-80.7 19-118.7C330.13333333 332.29999999999995 456.03333333 432 605.53333333 432v-42.7c0-55.6 63.9-87 107.9-53l210.3 162.5c34.7 26.8 34.7 79.2 0 106zM768.3-5.899999999999977H257.7c-93.1 0-168.5 75.5-168.5 168.5V542.4c0 93.1 75.5 168.5 168.5 168.5h49.6c26.6 0 48.1-21.5 48.1-48.1s-21.5-48.1-48.1-48.1h-49.6c-40 0-72.4-32.4-72.4-72.4v-379.8c0-40 32.4-72.4 72.4-72.4h510.5c40 0 72.4 32.4 72.4 72.4v132c0 26.6 21.5 48.1 48.1 48.1s48.1-21.5 48.1-48.1v-132c0-93-75.5-168.4-168.5-168.4z"  horiz-adv-x="1024" />

    
    <glyph glyph-name="sort" unicode="&#59571;" d="M426.666667 341.333333v85.333334h341.333333v-85.333334h-341.333333m0-256v85.333334h170.666666v-85.333334h-170.666666m0 512V682.666667h512v-85.333334H426.666667M256 170.666667h106.666667L213.333333 21.333333 64 170.666667H170.666667V597.333333H64L213.333333 746.666667 362.666667 597.333333H256v-426.666666z"  horiz-adv-x="1024" />

    
    <glyph glyph-name="sort1" unicode="&#58936;" d="M284.444444 327.111111h455.111112l-227.896889-227.555555L284.444444 327.111111z m0 113.777778l227.214223 227.555555L739.555556 440.888889H284.444444z"  horiz-adv-x="1024" />

    
    <glyph glyph-name="share-square-blue" unicode="&#60183;" d="M647.428571 266.85714299999995l201.142858 201.142857q10.857143 10.857143 10.857142 25.714286t-10.857142 25.714285l-201.142858 201.142858q-17.142857 17.714286-39.428571 8-22.857143-9.714286-22.857143-33.714286v-91.428572q-68 0-123.428571-11.142857t-92.857143-29.142857-65.142857-45.142857T260 463.428571t-25.428571-62.285714T222.285714 337.42857100000003t-2.857143-63.142857q0-103.428571 95.428572-230.857143 6.285714-6.857143 14.285714-6.857142 4 0 7.428572 1.714285 12.571429 5.142857 10.857142 18.857143-25.142857 202.285714 35.428572 270.285714 26.285714 29.714286 74.285714 43.142858T585.142857 384v-91.428571q0-24 22.857143-33.714286 6.857143-2.857143 13.714286-2.857143 14.857143 0 25.714285 10.857143z m303.428572 391.428571v-548.571428q0-68-48.285714-116.285715T786.285714-54.85714299999995H237.714286q-68 0-116.285715 48.285714T73.142857 109.71428600000002V658.285714q0 68 48.285714 116.285715T237.714286 822.857143h548.571428q68 0 116.285715-48.285714T950.857143 658.285714z"  horiz-adv-x="1024" />

    
    <glyph glyph-name="share-square-green" unicode="&#59127;" d="M647.428571 266.85714299999995l201.142858 201.142857q10.857143 10.857143 10.857142 25.714286t-10.857142 25.714285l-201.142858 201.142858q-17.142857 17.714286-39.428571 8-22.857143-9.714286-22.857143-33.714286v-91.428572q-68 0-123.428571-11.142857t-92.857143-29.142857-65.142857-45.142857T260 463.428571t-25.428571-62.285714T222.285714 337.42857100000003t-2.857143-63.142857q0-103.428571 95.428572-230.857143 6.285714-6.857143 14.285714-6.857142 4 0 7.428572 1.714285 12.571429 5.142857 10.857142 18.857143-25.142857 202.285714 35.428572 270.285714 26.285714 29.714286 74.285714 43.142858T585.142857 384v-91.428571q0-24 22.857143-33.714286 6.857143-2.857143 13.714286-2.857143 14.857143 0 25.714285 10.857143z m303.428572 391.428571v-548.571428q0-68-48.285714-116.285715T786.285714-54.85714299999995H237.714286q-68 0-116.285715 48.285714T73.142857 109.71428600000002V658.285714q0 68 48.285714 116.285715T237.714286 822.857143h548.571428q68 0 116.285715-48.285714T950.857143 658.285714z"  horiz-adv-x="1024" />

    
    <glyph glyph-name="cloud-sync-blue" unicode="&#58917;" d="M745.323055 421.627345l-30.049746-40.662109h114.8928V491.426909s-29.156073-24.743564-45.949673-37.124654c-7.949964 42.412218-261.604073 137.867636-315.503709-130.792728 21.206109 3.537455 33.5872 4.412509 59.205818 4.412509 31.799855 194.448291 217.404509 106.0864 217.40451 93.705309zM782.429091 319.115636c-31.818473-203.273309-217.404509-111.355345-217.404509-98.0992 12.381091 16.7936 30.049745 36.230982 30.049745 36.230982h-109.586618v-111.355345s26.512291 24.743564 43.305891 37.124654c7.949964-41.537164 260.7104-132.561455 313.734982 135.223855-20.331055-2.6624-34.462255 0.875055-60.099491 0.875054zM1169.519709 415.818473c-48.612073 37.999709-108.711564 55.668364-170.561164 51.255854-7.074909 129.024-84.843055 245.685527-202.379636 300.478837C752.397964 790.546618 702.017164 802.909091 650.761309 802.909091s-101.636655-12.362473-145.8176-35.355927c-117.536582-54.793309-197.092073-171.454836-202.379636-300.478837-60.974545 4.412509-120.198982-13.256145-170.561164-51.255854-63.636945-48.612073-98.992873-120.198982-98.992873-198.8608 0-138.742691 113.124073-250.991709 252.760437-250.991709h60.881454V-34.90909099999999H1017.558109c138.761309 0 252.760436 112.2304 252.760436 251.866764-1.805964 78.661818-37.161891 151.123782-100.798836 198.8608z m-151.998836-371.190691h-23.440291v0.893673H284.8768c-95.455418 0-174.992291 75.999418-174.992291 172.32989 0 54.793309 25.618618 103.405382 68.943127 137.867637 43.305891 33.5872 98.0992 42.412218 151.123782 29.156073 0.893673 0 2.643782-1.768727 3.537455-1.768728a38.167273 38.167273 0 0 1 33.5872 8.825018 41.518545 41.518545 0 0 1 13.256145 33.5872c-0.893673 8.843636-0.893673 16.7936-0.893673 25.637237 0 106.049164 61.868218 202.379636 159.092364 246.560582 0.875055 0 0.875055 0.893673 2.643782 0.893672 68.049455 35.355927 151.998836 35.355927 220.066909 0 0.875055 0 0.875055-0.893673 2.643782-0.893672 96.330473-44.180945 159.073745-141.405091 159.073745-246.560582 0-7.949964 0-16.7936-0.875054-25.637237-0.875055-12.362473 3.537455-24.743564 13.256145-33.5872a38.0928 38.0928 0 0 1 33.5872-8.825018c0.875055 0 2.643782 0 3.537455 0.875055 53.024582 14.149818 107.817891 3.537455 151.123782-29.156073 43.305891-33.5872 68.943127-83.074327 68.943127-136.992582-0.018618-95.4368-77.786764-173.204945-175.010909-173.204945z"  horiz-adv-x="1303" />

    
    <glyph glyph-name="cloud-sync" unicode="&#58920;" d="M270.506667 463.5648c56.832-21.8112 85.265067-74.581333 85.265066-158.327467 8.704 71.048533-8.260267 122.589867-50.944 154.624a177.954133 177.954133 0 0 0 163.464534 107.554134c98.2528 0 177.92-79.650133 177.92-177.92 0-5.563733-0.256-11.076267-0.768-16.503467h11.008a86.903467 86.903467 0 0 0 0-173.824H234.325333c-7.8848 0-15.530667 1.058133-22.784 3.0208a133.9392 133.9392 0 1 0 58.965334 261.376zM354.474667 389.4784c73.454933-28.177067 110.1824-96.375467 110.1824-204.561067 11.264 91.784533-10.683733 158.378667-65.809067 199.799467 35.2256 81.749333 116.5312 138.973867 211.2 138.973867 126.976 0 229.888-102.929067 229.888-229.888 0-7.202133-0.324267-14.336-0.9728-21.333334h14.216533a112.298667 112.298667 0 1 0 0-224.597333h-545.450666c-10.1888 0-20.053333 1.348267-29.44 3.874133-77.960533 16.8448-136.379733 86.186667-136.379734 169.181867 0 95.5904 77.482667 173.090133 173.073067 173.090133 13.585067 0 26.794667-1.570133 39.492267-4.539733zM894.122667 391.406933a17.032533 17.032533 0 0 0-8.021334 4.420267 17.0496 17.0496 0 0 0-4.4032 3.618133l-55.978666 64.4096a17.066667 17.066667 0 0 0 25.770666 22.391467L880.981333 452.266667v75.195733a17.066667 17.066667 0 1 0 34.133334 0v-76.0832l27.613866 31.744a17.066667 17.066667 0 1 0 25.770667-22.3744l-55.978667-64.4096a17.066667 17.066667 0 0 0-18.414933-4.949333zM279.722667 680.157867a17.032533 17.032533 0 0 1-8.021334-4.420267 17.0496 17.0496 0 0 1-4.4032-3.618133l-55.978666-64.4096a17.066667 17.066667 0 0 1 25.770666-22.391467l29.4912 33.962667v-75.195734a17.066667 17.066667 0 1 1 34.133334 0v76.0832l27.613866-31.744a17.066667 17.066667 0 1 1 25.770667 22.3744l-55.978667 64.4096a17.066667 17.066667 0 0 1-18.414933 4.949334z"  horiz-adv-x="1024" />

    
    <glyph glyph-name="computer-operation-web" unicode="&#58930;" d="M83.94854258 820.00780371m21.94854346 1e-8l976.71015703 0q21.94854258 0 21.94854258-21.94854258l0-493.7324713q0-21.94854258-21.94854258-21.94854346l-976.71015703 0q-21.94854258 0-21.94854346 21.94854346l0 493.7324713q0 21.94854258 21.94854346 21.94854258ZM1082.60724307 118.53237450999995H105.89708604a43.89708604 43.89708604 0 0 0-43.89708604 43.89708516V790.10291396a43.89708604 43.89708604 0 0 0 43.89708604 43.89708604h976.71015703a43.89708604 43.89708604 0 0 0 43.89708604-43.89708604v-627.67345429a43.89708604 43.89708604 0 0 0-43.89708604-43.89708516zM105.89708604 790.10291396v-627.67345429h976.71015703V790.10291396zM594.25216455-54.91598583999996a21.94854258 21.94854258 0 0 0-21.94854346 21.94854258v173.44836035a21.94854258 21.94854258 0 1 0 43.89708604 0V-32.96744325999998a21.94854258 21.94854258 0 0 0-21.94854258-21.94854258zM835.68613555-65.89025713000001H352.81819268a21.94854258 21.94854258 0 0 0 0 43.89708516h482.86794287a21.94854258 21.94854258 0 0 0 0-43.89708516zM1104.55578565 251.92464316999997H96.12998457a21.94854258 21.94854258 0 0 0 0 43.89708603H1104.55578565a21.94854258 21.94854258 0 0 0 0-43.89708603z"  horiz-adv-x="1211" />

    
    <glyph glyph-name="Responsive" unicode="&#59105;" d="M1389.2413792 29.172413379999966v-34.13793077c0-31.03448291-26.89655185-56.89655156-60.00000029-56.89655156H126.13793135C93.03448291-61.86206893999997 66.13793106-36.00000029 66.13793106-4.965517389999945v34.13793077H610.27586211c4.13793106-12.41379317 17.58620654-21.7241376 32.06896523-21.7241376h169.65517237c14.48275869 0 27.93103418 9.31034443 32.06896612 21.7241376h545.17241337zM1320.96551768 29.172413379999966H133.37931026V781.2413795C133.37931026 805.0344826099999 153.03448232 824.68965557 176.82758633 824.68965557h1100.68965527c23.79310313 0 43.44827607-19.65517207 43.44827608-43.44827607v-752.06896612zM1026.13793135 26.068965530000014H190.27586182V761.58620654H1261.99999971v-735.51724101h-112.7586208M190.27586182 761.58620654H1261.99999971M1393.37931026-62.89655215000005H914.41379287c-32.06896523 0-57.93103477 25.86206865-57.93103389 57.93103477V704.68965498C856.48275898 736.75862109 882.34482763 762.62068974 914.41379287 762.62068974h478.96551739c32.06896523 0 57.93103477-25.86206865 57.93103476-57.93103476v-709.65517237c0-32.06896523-25.86206865-57.93103477-57.93103476-57.93103476zM1451.31034502 705.72413818v-710.68965557c0-32.06896523-25.86206865-57.93103477-57.93103476-57.93103476H914.41379287c-32.06896523 0-57.93103477 25.86206865-57.93103389 57.93103476V705.72413818C856.48275898 737.79310342 882.34482763 763.6551720699999 914.41379287 763.6551720699999h478.96551739c32.06896523 0 57.93103477-25.86206865 57.93103476-57.93103389zM1148.20689658-9.103448439999966m-26.89655185 0a26.89655185 26.89655185 0 1 1 53.79310371 0 26.89655185 26.89655185 0 1 1-53.79310371 0ZM1192.68965498 726.41379346h-58.96551709c-4.13793106 0-7.24137891 3.10344786-7.24137891 7.24137891 0 4.13793106 3.10344786 7.24137891 7.24137891 7.24137978h58.96551709c4.13793106 0 7.24137891-3.10344786 7.24137979-7.24137978 0-4.13793106-3.10344786-7.24137891-7.24137979-7.24137891zM1106.82758604 726.41379346h-2.06896553c-4.13793106 0-7.24137891 3.10344786-7.2413789 7.24137891 0 4.13793106 3.10344786 7.24137891 7.2413789 7.24137978h2.06896553c4.13793106 0 7.24137891-3.10344786 7.24137978-7.24137978 1.03448232-4.13793106-3.10344786-7.24137891-7.24137978-7.24137891zM876.13793105 706.7586205h554.48275869v-666.20689628H876.13793105zM1546.4827584-62.89655215000005H1292.00000029c-25.86206865 0-46.55172393 20.68965528-46.5517248 46.55172481V535.0344826099999C1245.44827549 560.8965521499999 1266.13793076 581.5862065399999 1292.00000029 581.5862065399999h254.4827581c25.86206865 0 46.55172393-20.68965528 46.55172393-46.55172392v-551.37930996c-1.03448232-25.86206865-21.7241376-46.55172393-46.55172392-46.5517248zM1592 535.0344826099999v-551.37930995c0-25.86206865-20.68965528-46.55172393-46.55172393-46.5517248H1290.96551709c-25.86206865 0-46.55172393 20.68965528-46.55172393 46.5517248V535.0344826099999C1244.41379316 560.8965521499999 1265.10344844 581.5862065399999 1290.96551709 581.5862065399999h254.48275898c25.86206865 0 46.55172393-20.68965528 46.55172393-46.55172392zM1418.20689658-20.482758399999966m-21.7241376 1e-8a21.7241376 21.7241376 0 1 1 43.4482752 0 21.7241376 21.7241376 0 1 1-43.4482752 0ZM1452.34482734 546.4137934600001h-47.58620625c-3.10344786 0-5.17241338 2.06896553-5.17241425 5.17241337s2.06896553 5.17241338 5.17241425 5.17241426h47.58620625c3.10344786 0 5.17241338-2.06896553 5.17241426-5.17241426-1.03448232-3.10344786-3.10344786-5.17241338-5.17241426-5.17241337zM1386.13793135 546.4137934600001h-1.0344832c-3.10344786 0-5.17241338 2.06896553-5.17241338 5.17241337s2.06896553 5.17241338 5.17241338 5.17241426h1.0344832c3.10344786 0 5.17241338-2.06896553 5.17241338-5.17241426s-2.06896553-5.17241338-5.17241338-5.17241337zM1260.96551739 526.75862051h315.51724159v-506.89655157H1260.96551739z"  horiz-adv-x="1741" />

    
    <glyph glyph-name="Sync" unicode="&#59106;" d="M1121.55339781 451.10679656c-6.52427156 0-12.116505 4.66019438-13.98058219 10.25242688-0.93203906 2.79611625-1.86407813 5.59223344-1.86407812 8.38834969-1.86407813 7.45631063 2.79611625 14.91262125 9.32038875 16.77669843 7.45631063 1.86407813 14.91262125-2.79611625 16.77669937-9.32038781 0.93203906-2.79611625 1.86407813-6.52427156 2.79611625-9.32038875 1.86407813-7.45631063-2.79611625-14.91262125-10.25242687-16.77669844h-2.79611719z m-23.30097094 70.83495094c-5.59223344 0-11.18446594 3.72815531-13.04854312 8.38834969-0.93203906 2.79611625-1.86407813 5.59223344-3.72815531 8.38834968-2.79611625 7.45631063 0 14.91262125 7.45631062 18.64077657 7.45631063 2.79611625 14.91262125 0 18.64077656-7.45631063 0.93203906-2.79611625 2.79611625-5.59223344 3.72815532-9.32038875 2.79611625-7.45631063-0.93203906-14.91262125-7.45631063-18.64077656h-5.59223344z m-34.48543687 66.1747575c-4.66019438 0-9.32038875 1.86407813-12.116505 6.52427156-1.86407813 2.79611625-3.72815531 4.66019438-4.66019344 7.45631063-4.66019438 6.52427156-2.79611625 14.91262125 3.72815531 19.57281562s14.91262125 2.79611625 19.57281563-3.72815531l5.5922325-8.38834969c4.66019438-6.52427156 2.79611625-14.91262125-3.72815531-19.57281562-3.72815531-1.86407813-5.59223344-1.86407813-8.38834969-1.86407719z m-47.53398 56.85436875c-3.72815531 0-6.52427156 0.93203906-9.32038875 3.72815531-1.86407813 1.86407813-4.66019438 3.72815531-6.52427156 5.59223344-5.59223344 4.66019438-6.52427156 13.98058219-0.93203907 19.57281562 4.66019438 5.59223344 13.98058219 6.52427156 19.57281563 0.93203813 2.79611625-1.86407813 4.66019438-4.66019438 7.45631062-6.52427156 5.59223344-5.59223344 5.59223344-13.98058219 0.93203907-19.57281563-3.72815531-2.79611625-7.45631063-3.72815531-11.18446594-3.72815531z m-60.582525 42.87378656c-1.86407813 0-4.66019438 0.93203906-6.52427156 1.86407719-2.79611625 1.86407813-5.59223344 2.79611625-8.38834969 3.72815531-6.52427156 3.72815531-9.32038875 12.116505-6.52427156 18.6407775 3.72815531 6.52427156 12.116505 9.32038875 18.64077656 6.52427157 2.79611625-1.86407813 5.59223344-2.79611625 8.38834969-4.66019438 6.52427156-3.72815531 9.32038875-12.116505 5.59223343-18.64077656-1.86407813-4.66019438-6.52427156-7.45631063-11.18446687-7.45631063z m-68.97087375 27.96116532c-0.93203906 0-2.79611625 0-3.72815531 0.93203812-2.79611625 0.93203906-5.59223344 1.86407813-8.38834875 1.86407813-7.45631063 1.86407813-12.116505 9.32038875-10.25242782 16.77669843 1.86407813 7.45631063 9.32038875 12.116505 16.77669938 10.25242782 2.79611625-0.93203906 6.52427156-1.86407813 9.32038781-2.79611625 7.45631063-1.86407813 12.116505-9.32038875 9.32038875-16.77669938-1.86407813-6.52427156-7.45631063-10.25242687-13.04854406-10.25242687z m-73.63106719 13.04854312h-0.93203906c-2.79611625 0-5.59223344 0.93203906-9.32038875 0.93203906-7.45631063 0.93203906-13.04854406 7.45631063-13.04854313 14.91262125 0.93203906 7.45631063 7.45631063 13.98058219 14.91262125 13.04854407 2.79611625 0 6.52427156-0.93203906 9.32038782-0.93203907 7.45631063-0.93203906 13.04854406-7.45631063 13.04854406-14.91262125-0.93203906-8.38834969-6.52427156-13.04854406-13.98058219-13.04854406z m-83.88349594 0.93203906c-7.45631063 0-13.98058219 5.59223344-13.98058218 13.04854407 0 7.45631063 5.59223344 13.98058219 13.04854406 14.91262125h9.32038781c7.45631063 0 13.98058219-5.59223344 14.91262125-13.04854407 0-7.45631063-5.59223344-13.98058219-13.04854312-14.91262125h-10.25242782c0.93203906 0 0 0 0 0zM609.86407813 151.92232968999997h-10.25242782c-7.45631063 0-13.98058219 6.52427156-13.04854312 14.91262218 0 7.45631063 7.45631063 13.98058219 14.91262125 13.04854313h9.32038781c7.45631063 0 13.98058219-6.52427156 13.04854406-14.91262125 0-7.45631063-6.52427156-13.04854406-13.98058218-13.04854406z m-73.63106813 7.45631062h-2.79611719c-2.79611625 0.93203906-6.52427156 0.93203906-9.32038781 1.86407813-7.45631063 1.86407813-12.116505 9.32038875-10.25242687 16.77669937 1.86407813 7.45631063 9.32038875 12.116505 16.77669843 10.25242688 2.79611625-0.93203906 5.59223344-0.93203906 8.38834969-1.86407813 7.45631063-1.86407813 12.116505-8.38834969 11.18446594-16.77669844-1.86407813-5.59223344-7.45631063-10.25242687-13.98058219-10.25242781z m-71.76699094 22.36893282c-1.86407813 0-3.72815531 0-5.5922325 0.93203812-2.79611625 1.86407813-5.59223344 2.79611625-9.32038875 4.66019438-6.52427156 3.72815531-9.32038875 12.116505-5.5922325 18.64077656s12.116505 9.32038875 18.64077657 5.59223344c2.79611625-0.93203906 5.59223344-2.79611625 7.45631062-3.72815532 7.45631063-3.72815531 10.25242687-11.18446594 6.52427156-18.64077656-1.86407813-4.66019438-6.52427156-7.45631063-12.116505-7.45631063z m-60.58252406 42.87378656c-3.72815531 0-7.45631063 1.86407813-10.25242687 4.66019343-1.86407813 2.79611625-4.66019438 4.66019438-6.52427157 7.45631063-4.66019438 5.59223344-4.66019438 14.91262125 0.93203813 19.57281562s14.91262125 4.66019438 19.57281562-0.93203906c1.86407813-1.86407813 3.72815531-4.66019438 5.59223344-6.52427156 5.59223344-5.59223344 5.59223344-13.98058219 0-19.57281563-1.86407813-3.72815531-5.59223344-4.66019438-9.32038875-4.66019343zM363.80582562 286.13592186999995c-5.59223344 0-10.25242687 2.79611625-13.04854406 8.38834969-0.93203906 2.79611625-2.79611625 5.59223344-3.72815531 9.32038875-2.79611625 7.45631063 0.93203906 14.91262125 8.38834969 17.7087375 7.45631063 2.79611625 14.91262125-0.93203906 17.7087375-8.38834969 0.93203906-2.79611625 1.86407813-5.59223344 3.72815531-8.38834875 2.79611625-7.45631063 0-14.91262125-7.45631063-18.6407775h-5.5922325z m-20.50485468 71.76699094c-6.52427156 0-13.04854406 4.66019438-13.98058219 12.116505-0.93203906 2.79611625-0.93203906 6.52427156-0.93203906 9.32038781-0.93203906 7.45631063 4.66019438 14.91262125 12.116505 15.84466032 7.45631063 0.93203906 14.91262125-4.66019438 15.84466031-12.116505 0-2.79611625 0.93203906-5.59223344 0.93203812-9.32038782 0.93203906-7.45631063-3.72815531-14.91262125-12.116505-15.84466031h-1.86407718z m-4.66019438 73.63106813c-7.45631063 0-13.98058219 6.52427156-13.98058219 13.98058218v9.32038875c0 7.45631063 6.52427156 13.98058219 13.98058219 13.98058219s13.98058219-6.52427156 13.98058313-13.98058219v-9.32038875c0-7.45631063-6.52427156-13.98058219-13.98058313-13.98058218zM1055.37864031 625.39805813m-33.55339781-1e-8a33.55339781 33.55339781 0 1 1 67.10679656 0 33.55339781 33.55339781 0 1 1-67.10679656 0ZM1055.37864031 577.86407813C1029.28155312 577.86407813 1007.84466031 599.3009709400001 1007.84466031 625.39805813S1029.28155312 672.93203906 1055.37864031 672.93203906s47.53398094-21.43689281 47.53398094-47.53398094-21.43689281-47.53398094-47.53398094-47.53398z m0 67.10679562c-11.18446594 0-19.57281562-9.32038875-19.57281469-19.57281562 0-11.18446594 9.32038875-19.57281562 19.57281469-19.57281563 11.18446594 0 19.57281562 9.32038875 19.57281563 19.57281563 0 11.18446594-9.32038875 19.57281562-19.57281563 19.57281562zM354.48543688 332.73786375m-33.55339782 0a33.55339781 33.55339781 0 1 1 67.10679563 0 33.55339781 33.55339781 0 1 1-67.10679563 0ZM354.48543688 285.20388375000005C328.38834969 285.20388375000005 306.95145594 306.64077655999995 306.95145594 332.73786375S328.38834969 380.27184468999997 354.48543688 380.27184468999997s47.53398094-21.43689281 47.53398093-47.53398094-21.43689281-47.53398094-47.53398094-47.53398z m-1e-8 67.10679563c-11.18446594 0-19.57281562-9.32038875-19.57281562-19.57281563 0-11.18446594 9.32038875-19.57281562 19.57281562-19.57281562s19.57281562 9.32038875 19.57281563 19.57281562c0 11.18446594-8.38834969 19.57281562-19.57281563 19.57281563zM1411.41747594-41.009708440000054v-19.57281562c0-17.7087375-14.91262125-32.62135969-34.48543688-32.62135969H686.2912625c-18.64077656 0-34.48543688 14.91262125-34.48543687 32.62135969v19.57281562H964.03883469c2.79611625-7.45631063 10.25242687-13.04854406 18.64077656-13.04854406h97.86407813c8.38834969 0 15.84466031 5.59223344 18.64077656 13.04854406H1411.41747594zM1411.41747594-41.009708440000054c0-17.7087375-15.84466031-32.62135969-34.48543688-32.62135968H686.2912625c-18.64077656 0-34.48543688 14.91262125-34.48543687 32.62135968H964.03883469c2.79611625-7.45631063 10.25242687-13.04854406 18.64077656-13.04854406h97.86407813c8.38834969 0 15.84466031 5.59223344 18.64077656 13.04854406H1411.41747594zM1372.27184469-41.009708440000054H690.95145594V370.01941781000005c0 25.16504813 20.50485469 45.66990281 45.66990375 45.66990282h589.98058219c25.16504813 0 45.66990281-20.50485469 45.66990281-45.66990282v-411.02912625zM1202.64077656-42.873786559999985H723.57281563V379.33980562h614.21359218v-422.21359218h-64.31067937M723.57281563 379.33980562h614.21359218M138.25242687 703.68932062C79.53398094 703.68932062 32 656.15533969 32 597.43689281c0-26.09708719 9.32038875-49.39805812 24.23301-68.03883468 19.57281562-23.30097094 48.46601906-38.21359219 82.01941688-38.21359219h452.03883562c13.98058219 0 26.09708719 2.79611625 38.21359219 7.45631062 40.07767031 14.91262125 68.03883469 54.0582525 68.03883468 98.79611625 0 50.33009719-34.48543688 92.27184469-81.08737874 103.45631063v6.5242725C615.45631063 789.43689281 549.28155313 855.61165031 467.26213625 855.61165031c-53.12621344 0-98.79611625-27.96116531-124.89320437-68.97087375C321.86407813 799.68932062 296.69902906 808.07767031 269.66990281 808.07767031c-63.37864031-0.93203906-116.50485469-44.73786375-131.41747593-104.38834968z"  horiz-adv-x="1471" />

    
    <glyph glyph-name="shoujidiannao" unicode="&#58934;" d="M338.24 597.12h620.16v-381.12H338.24zM186.56 709.44h779.52v-202.56H186.56zM948.8 748.8c4.8-1.92 10.56-3.84 15.36-5.76 17.28-9.6 25.92-24.96 25.92-45.12V153.60000000000002c0-28.8-20.16-50.88-47.04-51.84H359.36V215.03999999999996H944c12.48 0 12.48 0 12.48 13.44V696.96c0 12.48 0 13.44-12.48 13.44H204.8c-12.48 0-12.48-0.96-12.48-13.44V497.28h-38.4v8.64 189.12c0 26.88 13.44 45.12 37.44 52.8 0.96 0 1.92 0.96 1.92 1.92l755.52-0.96zM573.44 191.03999999999996c-11.52 0-21.12-10.56-21.12-22.08 0-12.48 9.6-23.04 22.08-22.08 11.52 0 21.12 10.56 21.12 23.04-0.96 10.56-10.56 21.12-22.08 21.12zM59.84 449.28h283.2v-413.76H59.84zM36.8 473.28c0.96 3.84 2.88 6.72 3.84 10.56 6.72 14.4 17.28 22.08 32.64 22.08 84.48 0 168.96-0.96 252.48 0 24 0 40.32-20.16 40.32-43.2v-449.28c0-15.36-3.84-27.84-16.32-36.48-4.8-2.88-12.48-5.76-20.16-5.76H75.2c-18.24 0-30.72 9.6-36.48 27.84-0.96 1.92-0.96 2.88-1.92 4.8V473.28zM339.2 439.68H63.68V38.39999999999998H339.2V439.68z m-137.28 22.08h29.76c3.84 0 7.68 0.96 7.68 5.76 0 5.76-3.84 5.76-7.68 5.76h-60.48c-3.84 0-7.68-0.96-7.68-5.76 0-5.76 3.84-5.76 7.68-5.76h30.72z m-0.96-464.64c8.64 0 14.4 6.72 14.4 16.32 0 8.64-6.72 16.32-14.4 16.32-8.64 0-15.36-7.68-15.36-16.32 0.96-9.6 7.68-16.32 15.36-16.32z m296.64 26.88v25.92c0 10.56 4.8 15.36 14.4 15.36h132.48c9.6 0 13.44-4.8 13.44-15.36v-26.88H760.64c14.4 0 18.24-3.84 18.24-19.2v-14.4c0-8.64-4.8-13.44-13.44-13.44H424.64c-14.4 0-18.24 3.84-18.24 19.2v10.56c0 12.48 3.84 17.28 16.32 17.28h66.24c2.88 0.96 5.76 0.96 8.64 0.96z"  horiz-adv-x="1024" />

    
    <glyph glyph-name="computer-line" unicode="&#58931;" d="M904.7296 163.47648000000004H109.03552a12.91776 12.91776 0 0 0-12.90752 12.90752v109.63456h821.51424v-109.63456a12.928 12.928 0 0 0-12.91264-12.90752z m-314.37824-81.46944c0-24.88832 8.4992-47.8208 22.72256-66.08896H400.6912a107.264 107.264 0 0 1 22.72256 66.08896v39.75168h166.9376v-39.75168zM109.03552 738.66752h795.69408a12.92288 12.92288 0 0 0 12.90752-12.90752v-398.00832H96.12288V725.76a12.92288 12.92288 0 0 0 12.91264 12.90752z m795.69408 41.72288H109.03552c-30.1312 0-54.63552-24.50944-54.63552-54.6304v-549.376c0-30.12096 24.50432-54.6304 54.63552-54.6304h272.65024v-39.75168c0-36.43904-29.6448-66.08896-66.08384-66.08896H255.50848a20.85888 20.85888 0 0 1 0-41.71776h502.73792a20.85888 20.85888 0 0 1 0 41.71776h-60.08832c-36.43904 0-66.08896 29.64992-66.08896 66.08896v39.75168h272.65536c30.12608 0 54.63552 24.50944 54.63552 54.6304V725.76c0.00512 30.12096-24.50432 54.6304-54.6304 54.6304zM506.88512 247.26527999999996a22.51264 22.51264 0 1 0 0-45.02528 22.51264 22.51264 0 0 0 0 45.02528zM380.4672 453.61664a20.77696 20.77696 0 0 1 14.75072 6.10816l147.43552 147.43552a20.85376 20.85376 0 0 1 0 29.50144 20.85888 20.85888 0 0 1-29.50656 0L365.71136 489.23136a20.86912 20.86912 0 0 1 14.75584-35.61472zM541.7984 462.99136a20.79744 20.79744 0 0 1 14.75584-6.10816 20.79232 20.79232 0 0 1 14.75072 6.10816l58.73152 58.73152a20.85376 20.85376 0 0 1 0 29.50144 20.85888 20.85888 0 0 1-29.50144 0.00512L541.7984 492.4928a20.864 20.864 0 0 1 0-29.50144z"  horiz-adv-x="1024" />

    
    <glyph glyph-name="computer-line2" unicode="&#58932;" d="M1037.73714312 63.97714312000005H603.40571469V-27.428571560000023h228.61714219c13.71428531 0 22.83428531-9.12 22.83428625-22.83428531s-9.12-22.90285688-22.83428625-22.90285782H329.12c-13.71428531 0-22.83428531 9.18857156-22.83428531 22.90285782S315.40571469-27.428571560000023 329.12-27.428571560000023h228.61714312v91.40571469H123.40571469c-38.81142844 0-68.57142844 29.76-68.57142938 68.57142843V772.59428531c0 38.81142844 29.76 68.57142844 68.57142938 68.57142938h914.33142844c38.81142844 0 68.57142844-29.76 68.57142843-68.57142938v-640.04571375c0-38.81142844-29.76-68.57142844-68.57142843-68.57142844zM1060.57142844 772.59428531c0 13.71428531-9.12 22.83428531-22.83428531 22.83428625H123.40571469c-13.71428531 0-22.83428531-9.12-22.83428625-22.83428625v-548.57142843h960v548.57142843zM1060.57142844 178.28571468999996H100.57142844v-45.73714313c0-13.71428531 9.12-22.83428531 22.83428625-22.83428625h914.33142844c13.71428531 0 22.83428531 9.12 22.83428531 22.83428625V178.28571468999996z"  horiz-adv-x="1170" />

    
    <glyph glyph-name="driverS3" unicode="&#58901;" d="M521.1959375 389.01l-150.0834375-64.4625 139.0171875-59.43 161.16375 59.43-150.0975 64.4625z m-225.6140625-80.5790625l-5.0428125-290.0990625 219.5896875-96.6890625V222.80812500000002l-214.5590625 85.621875h0.0121875z m451.2515625 0l-198.429375-75.553125v-284.05125l198.429375 80.5846875V308.4309375zM273.9190625 802.6603125l-150.084375-64.468125 138.9928125-59.4309375 161.175 59.4309375-150.0834375 64.468125zM48.288125 722.075625L43.25 431.9690625l219.5840625-96.6890625V636.4453125L48.2871875 722.0625v0.013125z m451.25625 0l-198.440625-75.5409375v-284.05125l198.440625 80.578125V722.075625zM757.4046875 813.375l-150.084375-64.4625 139.010625-59.424375 161.158125 59.424375L757.4046875 813.375z m-225.6196875-80.58l-5.0446875-290.0990625 219.571875-96.69V647.173125l-214.5271875 85.621875z m451.2571875 0l-198.429375-75.553125v-284.0521875l198.429375 80.5790625V732.795z m0 0"  horiz-adv-x="1024" />

    
    <glyph glyph-name="driver-yellow" unicode="&#60181;" d="M863.34577813 151.66577813000004c1.13777813-5.77991147 1.72942187-11.78737813 1.82044374-17.93137813 0-51.97368853-42.23431147-94.208-94.208-94.208H242.11911147a94.29902187 94.29902187 0 0 0-92.47857814 112.13937813L240.48071147 694.74986667C245.62346667 725.6064 272.33848853 748.08888853 303.9232 748.08888853h405.18542187c31.5392 0 58.20871147-22.39146667 63.39697813-53.33902186l90.84017813-543.08408854zM950.72711147 86.31182187000002l-111.68426667 667.648a78.59768853 78.59768853 0 0 1-77.96053333 65.536H262.91768853c-38.82097813 0-71.68-27.6252448-77.96053333-65.536L73.27288853 86.26631147a115.96231147 115.96231147 0 0 1 113.68675627-137.89866667h650.17173333a115.96231147 115.96231147 0 0 1 115.82577707 115.78026667 124.928 124.928 0 0 1-2.2755552 22.1184zM227.1004448 746.86008853a36.09031147 36.09031147 0 0 0 35.95377707 29.99182294h498.0280896c17.88586667 0 32.9500448-12.60657813 35.95377706-29.99182294l97.39377814-582.0871104a114.5059552 114.5059552 0 0 1-57.344 15.1552H187.05066667a115.59822187 115.59822187 0 0 1-57.29848854-15.1096896l97.39377707 582.08711147z m-39.13955627-755.80302186a74.18311147 74.18311147 0 0 0-56.7523552 26.2144 72.18062187 72.18062187 0 0 0-16.2019552 58.8003552l0.31857707 2.2300448a73.27288853 73.27288853 0 0 0 71.77102293 58.9824h650.0352c35.49866667 0 65.17191147-25.3952 71.77102187-58.9824l0.31857813-2.2755552c3.5043552-20.98062187-2.4576-42.4163552-16.20195626-58.70933334a74.18311147 74.18311147 0 0 0-56.7523552-26.25991146H187.96088853z m222.50382294 366.592a86.016 86.016 0 0 0-17.74933334 170.2115552A120.05831147 120.05831147 0 0 0 512 635.3123552a120.2403552 120.2403552 0 0 0 119.3756448-107.40622187 86.016 86.016 0 0 0-17.84035627-170.2115552H410.51022187z"  horiz-adv-x="1024" />

    
    <glyph glyph-name="box-" unicode="&#58881;" d="M534.528 254.976v-315.904l301.056 173.568v110.592l-166.912-88.064zM198.144 230.39999999999998v-135.168l301.568-160.256v320l-132.608-119.808zM361.472 813.056l148.48-134.144-320-173.568L39.424 637.44zM189.952 493.056l320-171.52-150.528-136.704-322.048 169.472zM845.824 491.008l152.576-138.752-323.584-165.376-148.48 134.656zM673.28 811.52l327.68-175.616-148.992-130.56L526.336 680.96z"  horiz-adv-x="1024" />

    
    <glyph glyph-name="driverOOS" unicode="&#58933;" d="M624.5 802.5l193.5-112.5c69.75-40.5 112.5-114.75 112.5-194.625V271.5c0-79.875-42.75-154.125-112.5-194.625L624.5-34.5c-69.75-40.5-155.25-40.5-225 0l-193.5 112.5C136.25 118.5 93.5 192.75 93.5 272.625V496.5c0 79.875 42.75 154.125 112.5 194.625L399.5 802.5c69.75 40.5 155.25 40.5 225 0zM388.25 445.875a123.75 39.375 0 1 1 247.5 0 123.75 39.375 0 1 1-247.5 0ZM507.5 192.75c-3.375 0-6.75 3.375-6.75 6.75l1.125 255.375c0 3.375-3.375 6.75-6.75 6.75-2.25 0-4.5-1.125-5.625-2.25L361.25 307.5c-2.25-3.375-2.25-6.75 1.125-9 1.125-1.125 2.25-1.125 4.5-1.125h46.125c3.375 0 6.75-3.375 6.75-6.75v-90c0-4.5-3.375-6.75-6.75-6.75h-93.375C245.375 195 185.75 253.5 185.75 326.625c0 67.5 50.625 123.75 117 132.75 11.25 103.5 99 183.375 205.875 183.375S704.375 562.875 714.5 459.375c64.125-11.25 113.625-66.375 113.625-132.75 0-73.125-59.625-132.75-133.875-133.875H602c-4.5 0-6.75 3.375-6.75 6.75v90c0 3.375 3.375 6.75 6.75 6.75h46.125c1.125 0 3.375 0 4.5 1.125 3.375 2.25 3.375 6.75 1.125 9L525.5 459.375c-1.125 1.125-3.375 2.25-5.625 2.25-3.375 0-6.75-3.375-6.75-6.75l1.125-255.375c1.125-3.375-2.25-6.75-6.75-6.75z"  horiz-adv-x="1024" />

    
    <glyph glyph-name="box" unicode="&#59037;" d="M657.667606 791.43662l-151.43662-77.160564 2.16338-1.442253-2.16338 1.442253-159.369014 82.208451-324.507042-193.261972 150.715493-86.535211v-359.121127l333.88169 177.397183 328.833802-177.397183V515.966197l158.647888 91.583099-336.766197 183.887324z m0 0M173.070423 149.633803c-1.442254 0-2.884507 0-4.326761 0.721127-2.16338 1.442254-4.326761 4.326761-4.326761 7.211267V512.360563L18.028169 596.732394c-2.16338 0.721127-3.605634 3.605634-3.605634 6.490141 0 2.16338 1.442254 5.769014 4.326761 7.211268l324.507042 193.261972c2.16338 1.442254 5.769014 1.442254 7.932394 0l156.484507-80.045071 146.388733 74.997183c2.16338 1.442254 5.047887 0.721127 7.211267 0L997.31831 614.760563c2.16338-1.442254 4.326761-4.326761 4.32676-7.211267s-1.442254-5.769014-4.32676-7.211268l-155.042254-89.419718v-354.794366c0-2.884507-1.442254-5.769014-4.32676-7.211268-2.16338-1.442254-5.769014-1.442254-7.932395 0L506.230986 325.588732l-329.55493-175.954929H173.070423zM38.219718 603.222535l138.456338-79.323943c2.16338-1.442254 4.326761-4.326761 4.326761-7.211268v-346.140845l321.622535 171.628169c2.16338 1.442254 5.769014 1.442254 7.211268 0l316.574648-171.628169v346.140845c0 2.884507 1.442254 5.769014 4.32676 7.211268L977.847887 607.549296 656.946479 782.061972l-140.619718-71.391549c0-0.721127-0.721127-0.721127-0.721127-1.442254-2.16338-4.326761-7.211268-5.047887-11.538028-2.16338l-1.442254 1.442253h-0.721127L346.861972 787.830986 38.219718 603.222535z m0 0M835.064789 149.633803c-1.442254 0-2.16338 0-4.326761 0.721127L502.625352 328.473239c-2.16338 1.442254-4.326761 4.326761-4.32676 7.211268V714.997183c0 2.884507 1.442254 5.769014 4.32676 7.211268 2.16338 1.442254 5.769014 1.442254 7.932394 0l328.833803-198.309859c2.16338-1.442254 4.326761-4.326761 4.326761-7.211268v-359.842254c0-2.884507-1.442254-5.769014-4.326761-7.211267h-4.32676zM514.884507 340.011268l312.247887-169.464789V512.360563l-312.247887 187.492958v-359.842253z m0 0M173.070423 149.633803c-1.442254 0-2.884507 0-4.326761 0.721127-2.16338 1.442254-4.326761 4.326761-4.326761 7.211267V515.966197c0 2.884507 1.442254 5.769014 4.326761 7.211268l333.88169 198.309859c2.16338 1.442254 5.769014 1.442254 7.932394 0 2.16338-1.442254 4.326761-4.326761 4.326761-7.211268v-380.033802c0-2.884507-1.442254-5.769014-4.326761-7.211268l-333.88169-178.11831H173.070423z m7.932394 362.72676v-341.814084l317.295775 169.464789v360.56338l-317.295775-188.214085z m0 0M506.230986 338.569014l-139.898592 54.805634L173.070423 517.408451v-359.842254l333.88169-198.309859 328.833802 198.309859V517.408451L687.233803 407.076056l-181.002817-68.507042z m0 0M506.230986-48.676056c-1.442254 0-2.884507 0-4.326761 0.721126l-333.88169 198.30986c-2.16338 1.442254-4.326761 4.326761-4.32676 7.211267V517.408451c0 2.884507 1.442254 5.769014 4.32676 7.211267 2.16338 1.442254 5.769014 1.442254 7.932395 0l193.261971-123.312676 137.014085-54.084507 176.676056 67.064789L829.295775 523.898592c2.16338 1.442254 5.769014 2.16338 7.932394 0.721126 2.16338-1.442254 4.326761-4.326761 4.326761-7.211267v-359.842254c0-2.884507-1.442254-5.769014-4.326761-7.211267l-328.833803-198.30986c1.442254 0 0-0.721127-2.16338-0.721126z m-325.228169 210.569014l325.228169-193.261972 320.901408 193.261972v338.929577L692.28169 400.585915c-0.721127-0.721127-1.442254-0.721127-1.442253-0.721126l-180.281691-68.507043c-1.442254-0.721127-4.326761-0.721127-5.769014 0l-139.898591 54.805634c-0.721127 0-0.721127 0.721127-1.442254 0.721127L181.002817 501.543662v-339.650704z m0 0M506.230986-48.676056c-1.442254 0-2.16338 0-4.326761 0.721126-2.16338 1.442254-4.326761 4.326761-4.32676 7.211268V338.569014c0 2.884507 2.16338 6.490141 5.769014 7.211268l156.484507 55.52676 170.185915 121.149296c2.16338 1.442254 5.769014 1.442254 7.932395 0.721127 2.16338-1.442254 4.326761-4.326761 4.32676-7.211268v-359.842253c0-2.884507-1.442254-5.769014-4.32676-7.211268l-328.833803-198.309859c0.721127 1.442254-0.721127 0.721127-2.884507 0.721127z m8.653521 382.197183v-359.842254l312.247887 188.214085v338.929577l-158.647887-112.495774c-0.721127-0.721127-1.442254-0.721127-1.442253-0.721127L514.884507 333.521127z m0 0M22.35493 430.152113l150.715493 86.535211 333.88169-178.11831L346.140845 247.707042 22.35493 430.152113z m0 0M506.230986 338.569014l150.715493-86.535211 336.766197 173.070422-158.647887 90.861972-328.833803-177.397183z m0 0M346.140845 239.053521c-1.442254 0-2.16338 0-4.32676 0.721127L18.028169 422.940845c-2.16338 1.442254-3.605634 4.326761-3.605634 7.211268s1.442254 5.769014 4.326761 7.211267l150.715493 85.814085c2.16338 1.442254 5.769014 1.442254 7.932394 0l333.88169-178.11831c2.16338-1.442254 4.326761-4.326761 4.326761-7.211268s-1.442254-5.769014-4.326761-7.211267L350.467606 239.774648c-0.721127-0.721127-2.884507-0.721127-4.326761-0.721127zM38.219718 430.152113L346.140845 256.360563l143.504225 81.487324L173.070423 507.312676 38.219718 430.152113z m0 0M656.946479 244.101408c-1.442254 0-2.16338 0-4.326761 0.721127l-150.715493 86.535211c-2.16338 1.442254-4.326761 4.326761-4.32676 7.211268s1.442254 5.769014 4.32676 7.211268l328.833803 178.11831c2.16338 1.442254 5.769014 1.442254 7.932395 0l158.647887-91.583099c2.16338-1.442254 4.326761-4.326761 4.32676-7.211268s-1.442254-5.769014-4.32676-7.211267l-336.766197-173.070423c-0.721127-0.721127-1.442254-0.721127-3.605634-0.721127zM523.538028 338.569014L657.667606 261.408451l320.180281 164.416901L834.343662 506.591549 523.538028 338.569014z m0 0"  horiz-adv-x="1024" />

    
    <glyph glyph-name="yuncunchu1" unicode="&#59004;" d="M1143.99999969 517.33333312c-55.99999969 64.00000031-133.33333312 101.33333344-213.33333281 101.33333344h-10.66666688C831.99999969 816 621.33333312 893.33333344 450.66666687 794.66666625c-112.00000031-66.66666656-186.66666656-197.33333344-191.99999999-341.3333325C144.00000031 437.33333344 58.66666625 325.33333312 58.66666625 194.66666625000005 58.66666625 48 162.66666687-69.33333374999995 288.00000031-69.33333374999995h642.66666657C1095.99999969-69.33333374999995 1232 85.33333312000002 1232 274.66666688c0 90.66666656-31.99999969 178.66666688-88.00000031 242.66666625z m-213.33333281-530.66666624H288.00000031c-98.66666625 0-181.33333312 93.33333375-181.33333406 207.99999937 0 112.00000031 79.99999969 205.33333312 178.66666688 208.00000031 13.33333313 0 24 13.33333313 23.99999999 29.33333344V437.33333344c0 189.33333375 133.33333312 343.99999969 301.33333313 343.99999969 106.66666688 0 205.33333312-64.00000031 258.6666675-170.66666625-69.33333375-16.00000031-130.66666688-61.33333313-173.33333344-122.66666719-7.99999969-13.33333313-7.99999969-29.33333344 2.66666625-39.99999938 10.66666687-10.66666687 26.66666625-7.99999969 34.66666688 5.33333344 48 69.33333375 120 109.33333312 197.33333343 109.33333313 138.66666656 0 253.33333312-127.99999969 253.33333313-288s-114.66666656-288-253.33333313-288z m-109.33333313 301.33333312H480.00000031c-13.33333313 0-24 13.33333313-24 29.33333344s10.66666687 29.33333344 24 29.33333344h341.33333344c13.33333313 0 24-13.33333313 24-29.33333344s-10.66666687-29.33333344-24-29.33333344z m-5.33333344-186.66666656H480.00000031c-13.33333313 0-24 13.33333313-24 29.33333344 0 16.00000031 10.66666687 29.33333344 24 29.33333343h336c13.33333313 0 24-13.33333313 24-29.33333343 0-16.00000031-10.66666687-29.33333344-24-29.33333344zM930.66666688-82.66666687999998H288.00000031c-133.33333312 0-242.66666625 122.66666625-242.66666718 277.33333313 0 133.33333312 85.33333312 250.66666687 202.66666687 272.00000062 7.99999969 144 82.66666688 271.99999969 197.33333344 338.66666625C525.33333313 853.33333313 618.66666688 864 706.66666625 834.66666656c93.33333375-29.33333344 175.99999969-103.99999969 221.33333344-202.66666687h2.66666718c82.66666688 0 162.66666656-37.33333312 221.33333344-106.66666594 58.66666688-66.66666656 90.66666656-157.33333313 90.66666656-253.33333406 0-96-31.99999969-184.00000031-90.66666656-253.33333313-58.66666688-64.00000031-136.00000031-101.33333344-221.33333343-101.33333343z m-322.66666688 906.66666657c-53.33333344 0-103.99999969-13.33333313-151.99999969-42.66666656-106.66666688-61.33333313-178.66666688-189.33333375-184.00000031-327.99999938v-10.66666687l-10.66666687-2.66666719c-109.33333312-16.00000031-189.33333375-122.66666625-189.33333282-247.99999969 0-138.66666656 96-250.66666687 216-250.66666687h642.66666657c77.33333344 0 149.33333344 34.66666688 202.66666687 96 55.99999969 61.33333313 85.33333312 146.66666625 85.33333313 234.66666656 0 88.00000031-31.99999969 173.33333344-85.33333313 234.66666656-53.33333344 61.33333313-127.99999969 96-202.66666687 96H912.00000031l-2.66666719 8.00000063C866.66666656 709.33333313 789.33333313 781.33333313 698.66666656 810.66666656c-29.33333344 7.99999969-58.66666688 13.33333313-90.66666656 13.33333313z m322.66666688-850.66666594H288.00000031c-106.66666688 0-194.66666625 98.66666625-194.66666718 221.3333325 0 120 85.33333312 218.66666625 189.33333375 221.33333344 5.33333344 0 10.66666687 7.99999969 10.66666687 16.00000031V437.33333344c0 199.99999969 141.33333375 360 314.66666625 360 112.00000031 0 216-66.66666656 271.99999969-175.99999969l8.00000062-16.00000031-16.00000031-2.66666719c-66.66666656-16.00000031-125.33333344-58.66666688-165.33333375-117.33333281-5.33333344-5.33333344-2.66666625-16.00000031 2.66666719-21.33333375 2.66666625-2.66666625 5.33333344-2.66666625 7.99999969-2.66666625 2.66666625 0 5.33333344 2.66666625 8.00000062 5.33333344 50.66666625 72 127.99999969 117.33333375 207.99999938 117.33333281 146.66666625 0 264-136.00000031 264-301.33333313 0-173.33333344-120-309.33333375-266.66666625-309.33333281zM608 768c-157.33333313 0-285.33333375-149.33333344-285.33333375-330.66666656v-7.99999969c0-24-16.00000031-42.66666656-37.33333312-42.6666675-90.66666656-2.66666625-165.33333375-88.00000031-165.33333282-194.66666625s74.66666625-194.66666625 168-194.66666625h642.66666657c130.66666688 0 240 122.66666625 240 274.66666594 0 151.99999969-106.66666688 274.66666687-240 274.66666687-72 0-141.33333375-37.33333312-186.66666657-103.99999969-7.99999969-10.66666687-16.00000031-16.00000031-26.66666718-16.00000031s-21.33333375 2.66666625-29.33333344 10.66666688c-16.00000031 13.33333313-18.66666656 40.00000031-5.33333344 55.99999968 42.66666656 61.33333313 98.66666625 103.99999969 165.33333375 125.33333344-53.33333344 93.33333375-144 149.33333344-240 149.33333344z m208.00000031-679.99999969H480.00000031c-21.33333375 0-37.33333312 18.66666656-37.33333406 39.99999938 0 24 16.00000031 42.66666656 37.33333406 42.66666656h336c21.33333375 0 37.33333312-18.66666656 37.33333313-42.66666656 0-21.33333375-18.66666656-40.00000031-37.33333313-39.99999938zM480.00000031 144c-5.33333344 0-10.66666687-7.99999969-10.66666687-16.00000031s5.33333344-13.33333313 10.66666687-13.33333313h336c5.33333344 0 10.66666687 7.99999969 10.66666594 13.33333313 0 7.99999969-5.33333344 16.00000031-10.66666594 16.00000031H480.00000031z m341.33333344 130.66666688H480.00000031c-21.33333375 0-37.33333312 18.66666656-37.33333406 39.99999937 0 24 16.00000031 42.66666656 37.33333406 42.6666675h341.33333344c21.33333375 0 37.33333312-18.66666656 37.33333313-42.6666675 0-21.33333375-16.00000031-40.00000031-37.33333313-39.99999938zM480.00000031 330.66666655999995c-5.33333344 0-10.66666687-7.99999969-10.66666687-16.00000031s5.33333344-13.33333313 10.66666687-13.33333313h341.33333344c5.33333344 0 10.66666687 7.99999969 10.66666594 13.33333313 0 7.99999969-5.33333344 16.00000031-10.66666594 16.00000031H480.00000031z"  horiz-adv-x="1308" />

    
    <glyph glyph-name="driver-blue" unicode="&#59191;" d="M863.34577813 151.66577813000004c1.13777813-5.77991147 1.72942187-11.78737813 1.82044374-17.93137813 0-51.97368853-42.23431147-94.208-94.208-94.208H242.11911147a94.29902187 94.29902187 0 0 0-92.47857814 112.13937813L240.48071147 694.74986667C245.62346667 725.6064 272.33848853 748.08888853 303.9232 748.08888853h405.18542187c31.5392 0 58.20871147-22.39146667 63.39697813-53.33902186l90.84017813-543.08408854zM950.72711147 86.31182187000002l-111.68426667 667.648a78.59768853 78.59768853 0 0 1-77.96053333 65.536H262.91768853c-38.82097813 0-71.68-27.6252448-77.96053333-65.536L73.27288853 86.26631147a115.96231147 115.96231147 0 0 1 113.68675627-137.89866667h650.17173333a115.96231147 115.96231147 0 0 1 115.82577707 115.78026667 124.928 124.928 0 0 1-2.2755552 22.1184zM227.1004448 746.86008853a36.09031147 36.09031147 0 0 0 35.95377707 29.99182294h498.0280896c17.88586667 0 32.9500448-12.60657813 35.95377706-29.99182294l97.39377814-582.0871104a114.5059552 114.5059552 0 0 1-57.344 15.1552H187.05066667a115.59822187 115.59822187 0 0 1-57.29848854-15.1096896l97.39377707 582.08711147z m-39.13955627-755.80302186a74.18311147 74.18311147 0 0 0-56.7523552 26.2144 72.18062187 72.18062187 0 0 0-16.2019552 58.8003552l0.31857707 2.2300448a73.27288853 73.27288853 0 0 0 71.77102293 58.9824h650.0352c35.49866667 0 65.17191147-25.3952 71.77102187-58.9824l0.31857813-2.2755552c3.5043552-20.98062187-2.4576-42.4163552-16.20195626-58.70933334a74.18311147 74.18311147 0 0 0-56.7523552-26.25991146H187.96088853z m222.50382294 366.592a86.016 86.016 0 0 0-17.74933334 170.2115552A120.05831147 120.05831147 0 0 0 512 635.3123552a120.2403552 120.2403552 0 0 0 119.3756448-107.40622187 86.016 86.016 0 0 0-17.84035627-170.2115552H410.51022187z"  horiz-adv-x="1024" />

    
    <glyph glyph-name="driverLocal" unicode="&#58929;" d="M512 384m-236.00721377 0a236.00721377 236.00721377 0 1 1 472.01442754 0 236.00721377 236.00721377 0 1 1-472.01442756 0ZM58.20031129 284.85048771000004L237.43212148 744.37034054C248.87244975 769.15771907 271.7531063 784.41148948 298.447205 784.41148948h427.10559c26.6940987 0 49.57475525-15.25377043 59.10836154-40.04114894l179.23181018-459.51985283c3.81344217-7.62688611 3.81344217-15.25377043 3.81344218-22.88065652v-198.29902278c0-36.22770677-28.60082068-64.82852747-64.82852569-64.82852748H119.2153966c-36.22770677 0-64.82852747 28.60082068-64.82852747 64.82852748V261.96983119000004c0 7.62688611 1.90672198 15.25377043 3.81344216 22.88065652zM564.266667 249.60000000000002m-11.733334 0a11.733333 11.733333 0 1 1 23.466667 0 11.733333 11.733333 0 1 1-23.466667 0ZM628.266667 249.60000000000002m-11.733334 0a11.733333 11.733333 0 1 1 23.466667 0 11.733333 11.733333 0 1 1-23.466667 0ZM692.266667 249.60000000000002m-11.733334 0a11.733333 11.733333 0 1 1 23.466667 0 11.733333 11.733333 0 1 1-23.466667 0ZM744.533333 296.53333299999997v11.733334h-11.733333c5.333333 0 11.733333-5.333333 11.733333-11.733334zM288 324.266667h448c18.133333 0 32-13.86666701 32-32V192c0-18.133333-13.86666701-32-32-32H288c-18.133333 0-32 13.86666701-32 32v100.266667c0 17.06666699 13.86666701 32 32 32zM111.58851052 290.57065184h800.82297896c32.41426285 0 57.20164137-24.78737853 57.20164139-57.20164133v-179.23180841c0-32.41426285-24.78737853-57.20164137-57.20164139-57.20164136H111.58851052c-32.41426285 0-57.20164137 24.78737853-57.20164139 57.20164136v179.23180841c0 32.41426285 24.78737853 57.20164137 57.20164139 57.20164133zM126.84228093 248.62278269h772.22215833c15.25377043 0 28.60082068-13.34705026 28.60082068-28.60082065v-150.63098951c0-15.25377043-13.34705026-28.60082068-28.60082068-28.60082069H126.84228093c-15.25377043 0-28.60082068 13.34705026-28.60082068 28.60082069v150.63098951c-1.90672198 15.25377043 11.44032827 28.60082068 28.60082068 28.60082065zM883.81066883 216.20851808999998c7.62688611 0 15.25377043-5.72016414 15.25377043-15.25377045v-114.40328269c0-7.62688611-5.72016414-15.25377043-15.25377043-15.25377044-7.62688611 0-15.25377043 5.72016414-15.25377045 15.25377044v114.40328269c1.90672198 9.5336063 7.62688611 15.25377043 15.25377045 15.25377045zM826.60902747 216.20851808999998c7.62688611 0 15.25377043-5.72016414 15.25377043-15.25377045v-114.40328269c0-7.62688611-5.72016414-15.25377043-15.25377043-15.25377044-7.62688611 0-15.25377043 5.72016414-15.25377044 15.25377044v114.40328269c1.90672198 9.5336063 7.62688611 15.25377043 15.25377044 15.25377045zM769.40738611 216.20851808999998c7.62688611 0 15.25377043-5.72016414 15.25377043-15.25377045v-114.40328269c0-7.62688611-5.72016414-15.25377043-15.25377043-15.25377044-7.62688611 0-15.25377043 5.72016414-15.25377043 15.25377044v114.40328269c1.90672198 9.5336063 7.62688611 15.25377043 15.25377043 15.25377045zM712.20574476 216.20851808999998c7.62688611 0 15.25377043-5.72016414 15.25377044-15.25377045v-114.40328269c0-7.62688611-5.72016414-15.25377043-15.25377044-15.25377044-7.62688611 0-15.25377043 5.72016414-15.25377043 15.25377044v114.40328269c1.90672198 9.5336063 7.62688611 15.25377043 15.25377043 15.25377045zM189.76408642 138.03294215000005m-20.97393458 0a20.97393459 20.97393459 0 1 1 41.94787093 0 20.97393459 20.97393459 0 1 1-41.94787093 0ZM58.20031129 284.85048771000004L237.43212148 744.37034054C248.87244975 769.15771907 271.7531063 784.41148948 298.447205 784.41148948h427.10559c26.6940987 0 49.57475525-15.25377043 59.10836154-40.04114894C298.447205 433.57475525 56.2935911 281.03704556 58.20031129 284.85048771000004zM58.20031129 284.85048771000004L237.43212148 744.37034054C248.87244975 769.15771907 271.7531063 784.41148948 298.447205 784.41148948h427.10559c26.6940987 0 49.57475525-15.25377043 59.10836154-40.04114894C298.447205 433.57475525 56.2935911 281.03704556 58.20031129 284.85048771000004zM395.733333 468.266667a116.266667 75.73333299999999 0 1 1 232.533334 0 116.266667 75.73333299999999 0 1 1-232.533334 0ZM304.16736914 547.9780379599999a207.83263086 135.37721731 0 1 1 415.66526172 0 207.83263086 135.37721731 0 1 1-415.66526172 0ZM348.02196204 465.98901986c-26.6940987 22.88065653-43.85459111 51.48147723-43.8545929 83.89574008 0 74.36213377 93.42934816 135.37721731 207.83263086 135.37721729 49.57475525 0 95.33606831-11.44032827 131.56377515-30.50754086-114.40328272-76.26885573-213.552795-137.28393923-295.54181311-188.76541651z"  horiz-adv-x="1024" />

    
    <glyph glyph-name="Computer-blue" unicode="&#59064;" d="M85.333333 725.333333h853.333334v-512H85.333333zM128 725.333333c-25.6 0-42.666667-17.066667-42.666667-42.666666v-512c0-25.6 17.066667-42.666667 42.666667-42.666667h768c25.6 0 42.666667 17.066667 42.666667 42.666667V682.666667c0 25.6-17.066667 42.666667-42.666667 42.666666H128z m0 42.666667h768c46.933333 0 85.333333-38.4 85.333333-85.333333v-512c0-46.933333-38.4-85.333333-85.333333-85.333334H128c-46.933333 0-85.333333 38.4-85.333333 85.333334V682.666667c0 46.933333 38.4 85.333333 85.333333 85.333333zM320 0h384c12.8 0 21.333333-8.533333 21.333333-21.333333s-8.533333-21.333333-21.333333-21.333334h-384c-12.8 0-21.333333 8.533333-21.333333 21.333334s8.533333 21.333333 21.333333 21.333333zM490.666667 85.333333h42.666666v-128h-42.666666z"  horiz-adv-x="1024" />

    
    <glyph glyph-name="user1" unicode="&#58922;" d="M710.42844445 196.83555554999998H313.57155555c-113.89155555 0-206.16533333-92.27377778-206.16533333-206.16533333h809.18755556c0 113.89155555-92.27377778 206.16533333-206.16533333 206.16533333zM279.89333333 516.20977778a261.12 233.69955555 90 1 1 467.39911112 0 261.12 233.69955555 90 1 1-467.39911112 0Z"  horiz-adv-x="1024" />

    
    <glyph glyph-name="bumen1" unicode="&#58945;" d="M513.90008889 108.78293332999999a44.96497778 44.96497778 0 0 0-22.05013334 5.75715556l-395.94666666 204.44728889-0.32995556 0.15928889a47.0016 47.0016 0 0 0-23.35857778 40.77795555v42.09777778a15.72408889 15.72408889 0 1 0 31.44817778 0v-42.09777778a15.53066667 15.53066667 0 0 1 7.30453334-13.35751111l395.94666666-204.40177778 0.29582222-0.17066666a13.42577778 13.42577778 0 0 1 13.50542223 0l0.6144 0.32995555 394.02382222 204.23111111a15.53066667 15.53066667 0 0 1 7.28177778 13.34613334v42.09777778a15.72408889 15.72408889 0 1 0 31.44817777 0v-42.09777778A46.96746667 46.96746667 0 0 0 930.79324445 319.14666666999995l-0.6144-0.34133334L536.00711111 114.57422222000002a44.99911111 44.99911111 0 0 0-22.10702222-5.79128889zM513.90008889-57.048177779999946a44.9536 44.9536 0 0 0-22.05013334 5.68888889l-395.94666666 204.44728889-0.29582222 0.17066667a47.01297778 47.01297778 0 0 0-23.35857778 40.77795555v42.09777778a15.72408889 15.72408889 0 0 0 31.44817778 0v-42.09777778a15.51928889 15.51928889 0 0 1 7.31591111-13.35751111l395.94666667-204.40177778 0.29582222-0.17066666a13.42577778 13.42577778 0 0 1 13.50542222 0l0.6144 0.32995555 393.97831111 204.288a15.50791111 15.50791111 0 0 1 7.28177778 13.33475556v42.09777777a15.72408889 15.72408889 0 1 0 31.44817777 0v-42.09777777a46.97884445 46.97884445 0 0 0-23.2903111-40.73244445l-0.6144-0.34133333L536.00711111-51.26826667a44.98773333 44.98773333 0 0 0-22.10702222-5.77991111zM506.1632 302.23928889a13.40302222 13.40302222 0 0 1 13.76711111 0l0.4096 0.22755556 384.80782222 211.47875555-366.55786666 214.61902222a41.69955555 41.69955555 0 0 1-44.25955556 0L125.88373333 512.73955555l-0.38684444-0.23893333-0.78506667-0.52337777 381.24657778-209.62417778zM513.04675555 280.29155555a44.98773333 44.98773333 0 0 0-22.66453333 6.0984889L95.27751111 503.64871111l-0.19342222 0.12515556a47.28604445 47.28604445 0 0 0-1.13777778 80.32711111l0.4096 0.25031111 394.92266667 231.33297778a44.68053333 44.68053333 0 0 0 47.43395555 0L932.07893333 584.24888889l0.2048-0.13653334a47.29742222 47.29742222 0 0 0-1.13777778-80.33848888l-0.4096-0.22755556L535.66577778 286.39004445a44.97635555 44.97635555 0 0 0-22.61902223-6.0984889zM110.87644445 530.9553777799999l395.08195555-217.22453333 0.2048-0.11377778a13.40302222 13.40302222 0 0 1 13.76711111 0l0.4096 0.22755555 395.0592 217.11075556a15.86062222 15.86062222 0 0 1 0.32995556 26.40782222l-395.264 231.424-0.2048 0.13653333a13.50542222 13.50542222 0 0 1-14.4384 0l-0.42097778-0.26168888-394.80888889-231.29884445a15.86062222 15.86062222 0 0 1 0.32995555-26.40782222z"  horiz-adv-x="1024" />

    
    <glyph glyph-name="bumen2" unicode="&#58924;" d="M822.784-31.232H201.216c-57.344 0-103.936 46.592-103.936 103.936V694.784C97.28 752.128 143.872 798.72 201.216 798.72h622.08c57.344 0 103.936-46.592 103.936-103.936v-622.08c0-57.344-46.592-103.936-104.448-103.936zM635.904 313.344v61.44h-112.128v-61.44H501.76v61.44H389.12v-61.44h-22.016V396.8h134.144V456.704h22.016v-59.392h134.144v-83.456h-21.504v-0.512z m-47.616 164.352H436.224c-8.704 0-15.872 7.168-15.872 15.872V599.04c0 8.704 7.168 15.872 15.872 15.872h152.064c8.704 0 15.872-7.168 15.872-15.872v-104.96c0.512-9.216-6.656-16.384-15.872-16.384z m-210.432-324.608H282.624c-10.752 0-18.944 8.192-18.944 18.944v95.232c0 10.752 8.192 18.944 18.944 18.944H378.88c10.752 0 18.944-8.192 18.944-18.944v-96.256c-1.536-9.728-9.728-17.92-19.968-17.92z m182.272 0H464.896c-10.752 0-18.944 8.192-18.944 18.944v95.232c0 10.752 8.192 18.944 18.944 18.944h96.256c10.752 0 18.944-8.192 18.944-18.944v-96.256c-1.536-9.728-9.216-17.92-19.968-17.92z m181.248 0H645.12c-10.752 0-18.944 8.192-18.944 18.944v95.232c0 10.752 8.192 18.944 18.944 18.944h96.256c10.752 0 18.944-8.192 18.944-18.944v-96.256c0-9.728-8.704-17.92-18.944-17.92z"  horiz-adv-x="1024" />

    
    <glyph glyph-name="Empty-collection" unicode="&#58977;" d="M317.666358 21.277642a10.778947 10.778947 0 0 0 0 21.557895h69.52421a10.778947 10.778947 0 0 0 0-21.557895h-69.52421zM709.632-61.019621a10.778947 10.778947 0 1 0 0 21.557895h69.513432a10.778947 10.778947 0 1 0 0-21.557895H709.632zM1289.733389 9.269895a10.778947 10.778947 0 1 0 0 21.557894h69.513432a10.778947 10.778947 0 1 0 0-21.557894h-69.513432zM421.252042 21.277642a10.778947 10.778947 0 1 0 0 21.557895h154.850358a10.778947 10.778947 0 1 0 0-21.557895H421.252042zM889.586526-21.978274a10.778947 10.778947 0 0 0 0 21.557895h303.82619a10.778947 10.778947 0 1 0 0-21.557895H889.586526zM1159.696168-117.188716a10.778947 10.778947 0 1 0 0 21.557895h371.399411a10.778947 10.778947 0 1 0 0-21.557895h-371.399411zM29.803789-117.188716a10.778947 10.778947 0 1 0 0 21.557895h1080.912843a10.778947 10.778947 0 1 0 0-21.557895H29.803789zM471.331032 806.480842a16.168421 16.168421 0 1 0 0 32.336842h62.722694a16.168421 16.168421 0 0 0 0-32.336842h-62.722694zM486.529347 857.799411a16.168421 16.168421 0 1 0 32.336842 0v-65.751579a16.168421 16.168421 0 0 0-32.336842 0v65.751579zM1333.646821 431.642947a16.168421 16.168421 0 0 0 0 32.336842h62.722695a16.168421 16.168421 0 1 0 0-32.336842h-62.722695zM1348.845137 482.950737a16.168421 16.168421 0 1 0 32.336842 0v-65.751579a16.168421 16.168421 0 1 0-32.336842 0v65.751579zM118.568421 197.362526a16.168421 16.168421 0 1 0 0 32.336842h62.711916a16.168421 16.168421 0 1 0 0-32.336842H118.568421zM133.755958 248.681095a16.168421 16.168421 0 1 0 32.336842 0v-65.751579a16.168421 16.168421 0 0 0-32.336842 0v65.751579zM1327.114779 875.811032a15.683368 15.618695 0 1 1 31.366737 0 15.683368 15.618695 0 1 1-31.366737 0ZM1267.011368 303.341137a15.683368 15.618695 0 1 1 31.366737 0 15.683368 15.618695 0 1 1-31.366737 0ZM1408.118568 115.9168a15.683368 15.618695 0 1 1 31.366737 0 15.683368 15.618695 0 1 1-31.366737 0ZM232.232421 420.475958a15.683368 15.618695 0 1 1 31.366737 0 15.683368 15.618695 0 1 1-31.366737 0ZM740.793937 492.684126l-1.164126 12.643706-85.832758 48.106442 90.392252 38.868884L763.408168 688.796295l64.900043-73.954358 97.721936 11.533474-50.154442-84.366822 24.144842-49.324463h86.2208a16.168421 16.168421 0 1 0 0-32.336842H569.236211a16.168421 16.168421 0 0 0 0 32.336842h171.557726z m32.476968 0h90.737179l-24.867031 50.811958 25.610779 43.083453-49.529264-5.84219-32.897347 37.489179-9.744168-48.914863-45.821306-19.703916 43.503832-24.381979 3.007326-32.541642zM525.861726 488.642021l85.584842 83.450611a16.168421 16.168421 0 1 1-22.571115 23.153179L493.524884 502.277389v-370.558652h470.845979a90.597053 90.597053 0 0 1 90.586274 90.597052V501.544421L1018.826105 542.773895a16.168421 16.168421 0 0 1-24.317305-21.320758l28.133053-32.078148V222.315789a58.260211 58.260211 0 0 0-58.260211-58.26021H525.861726V488.642021zM838.817684 243.345516H873.094737C862.897853 282.031158 827.974063 303.157895 792.252632 303.157895s-65.827032-21.126737-80.842106-59.812379h35.710653C757.652211 261.594274 773.389474 270.821053 792.252632 270.821053c20.792589 0 38.480842-10.455579 46.565052-27.475537z m34.277053 0C862.897853 282.031158 827.974063 303.157895 792.252632 303.157895s-65.827032-21.126737-80.842106-59.812379h35.710653C757.652211 261.594274 773.389474 270.821053 792.252632 270.821053c20.792589 0 38.480842-10.455579 46.565052-27.475537H873.094737zM711.410526 400.168421m21.557895 0l0 0q21.557895 0 21.557895-21.557895l0-32.336842q0-21.557895-21.557895-21.557895l0 0q-21.557895 0-21.557895 21.557895l0 32.336842q0 21.557895 21.557895 21.557895ZM819.2 400.168421m21.557895 0l0 0q21.557895 0 21.557894-21.557895l0-32.336842q0-21.557895-21.557894-21.557895l0 0q-21.557895 0-21.557895 21.557895l0 32.336842q0 21.557895 21.557895 21.557895Z"  horiz-adv-x="1552" />

    
    <glyph glyph-name="yonghu" unicode="&#58925;" d="M226.16594963 187.64443497000002c0 90.72124208 64.62335052 167.77216 145.40253867 200.08383525 7.45654045 3.72827022 9.94205392 13.67032415 3.72827022 19.88410786-28.58340503 31.06891852-43.49648592 73.3226477-43.49648593 119.3046471 0 69.59437748 43.49648592 130.48945778 104.39156623 157.83010607-24.85513482 59.65232355-89.47848533 98.17778252-161.5583763 80.77918816-58.40956682-14.91308089-104.39156622-62.13783703-109.36259319-121.79016059-4.97102697-79.53643141 58.40956682-144.15978192 123.03291734-147.88805215v-7.45654045h-26.09789156c-101.90605275 0-185.17075437-83.26470163-185.17075436-185.17075437v-114.33362015c0-12.42756741 9.94205392-27.3406483 22.36962133-31.06891852 33.554432-11.18481067 74.56540445-19.88410785 106.8770797-24.85513481 9.94205392-1.24275675 19.88410785 6.2137837 19.88410785 17.39859438v37.28270222z m540.59918222 300.74713125h-31.06891852v7.45654045c49.71026963 6.2137837 121.79016059 64.62335052 121.79016059 135.46048474 0 75.80816118-63.38059378 136.70324148-139.18875495 136.70324148-58.40956682 0-108.11983645-36.03994548-128.0039443-86.99297186 57.16681008-27.3406483 95.69226903-85.75021511 95.69226903-154.10183585 0-45.98199941-14.91308089-86.99297185-43.49648592-118.06189036-6.2137837-6.2137837-3.72827022-17.39859437 4.97102697-21.1268646 79.53643141-31.06891852 137.94599822-109.36259318 137.94599822-198.84107852v-37.28270222c0-11.18481067 9.94205392-18.64135111 19.88410785-17.39859437 33.554432 6.2137837 86.99297185 14.91308089 121.79016059 27.3406483 12.42756741 3.72827022 19.88410785 16.15583763 19.88410784 28.58340504v118.06189037c0 99.42053925-80.77918815 180.19972741-180.1997274 180.1997274zM369.08297482 528.15978192a142.91702518 142.91702518 0 1 1 285.83405036 0 142.91702518 142.91702518 0 1 1-285.83405036 0zM564.19578311 384h-105.63432296c-100.663296 0-182.68524089-93.20675555-182.6852409-193.87005155v-125.51843082c0-12.42756741 7.45654045-24.85513482 19.88410786-28.58340504 63.38059378-24.85513482 136.70324148-37.28270222 216.23967289-37.28270222s152.85907911 13.67032415 216.23967289 36.03994548c12.42756741 4.97102697 19.88410785 16.15583763 19.88410786 28.58340504V190.12994845000003C748.12378075 290.79324445 666.10183585 384 564.19578311 384z"  horiz-adv-x="1024" />

    
    <glyph glyph-name="user-act" unicode="&#58928;" d="M512 638.20024187m-225.95577083 0a225.95577083 225.95577083 0 1 1 451.91154166 0 225.95577083 225.95577083 0 1 1-451.91154166 0ZM88.3329294 129.79975813a423.6670706 225.95577083 0 1 1 847.3341412 0 423.6670706 225.95577083 0 1 1-847.3341412 0ZM420.34669037 242.77764353999999l91.59682124 119.75655788L603.54033164 242.77764353999999 512 101.55528587000003z"  horiz-adv-x="1024" />

    
    <glyph glyph-name="LandscapePicture" unicode="&#59335;" d="M874.47071605 767.18332839c45.56774717 0 82.85044939-37.28270222 82.85044938-82.85044937v-579.95314569c0-45.56774717-37.28270222-82.85044939-82.85044938-82.85044938h-745.65404444c-45.56774717 0-82.85044939 37.28270222-82.85044939 82.85044938v579.95314569c0 45.56774717 37.28270222 82.85044939 82.85044939 82.85044937h745.65404444zM925.63152592 361.83684741l-123.24004344 123.24004345c-8.28504494 8.28504494-20.71261235 8.28504494-28.99765729 0l-250.62260938-246.48008692-155.34459261 146.02391704-308.61792394-328.29490568h869.92971852l-3.10689186 305.51103211zM562.33099061 247.9174795l-135.66761086 130.48945778c-8.28504494 8.28504494-20.71261235 8.28504494-28.99765728 0L77.65586172 63.57522962999997h310.68918519l173.9859437 184.34224987zM253.09234569 560.05720494m-62.13783705 0a62.13783703 62.13783703 0 1 1 124.27567408 0 62.13783703 62.13783703 0 1 1-124.27567408 0ZM253.09234569 497.9193679c34.17581037 0 62.13783703 27.96202667 62.13783703 62.13783704s-27.96202667 62.13783703-62.13783703 62.13783703v-124.27567407z"  horiz-adv-x="1024" />

    
    <glyph glyph-name="jpg" unicode="&#58967;" d="M160.00016 864h480L912.00015969 592.00000031v-640.00000031c0-12-4.8-24-14.4-33.6-8.80000031-9.6-21.6-14.4-33.6-14.4h-703.99999969c-12 0-24 4.8-33.6 14.4A46.08 46.08 0 0 0 112.00016-48v864C112.00016 828 117.60015969 840 126.40016 849.6 135.20016031 859.2 148.00016 864 160.00016 864z m598.39999969-673.60000031l-99.99999938 155.20000031a15.71200031 15.71200031 0 0 1-13.60000031 7.2c-5.59999969 0-10.39999969-3.19999969-13.60000031-7.2l-53.59999969-83.20000031-120 194.4a15.71200031 15.71200031 0 0 1-13.60000031 7.2c-5.59999969 0-10.39999969-3.19999969-13.59999938-7.2L265.60016 190.39999968999996c-3.19999969-4.8-3.19999969-11.20000031 0-15.99999938 3.19999969-5.59999969 7.99999969-7.99999969 13.60000031-8.00000062h465.6c5.59999969 0 11.20000031 3.19999969 14.4 8.00000062 2.4 5.59999969 2.4 12-0.80000062 15.99999938z m-135.99999938 293.60000062a40.00000031 40.00000031 0 1 1 79.99999969 0 40.00000031 40.00000031 0 0 1-79.99999969 0zM912.00015969 592.00000031h-223.99999969a46.08 46.08 0 0 0-33.6 14.4A46.08 46.08 0 0 0 640.00016 640.00000031V864L912.00015969 592.00000031z"  horiz-adv-x="1024" />

    
    <glyph glyph-name="picture-blue-deep" unicode="&#58921;" d="M56.88888853 748.08888853m91.02222294 0l728.17777706 0q91.02222187 0 91.02222294-91.02222186l0-546.13333334q0-91.02222187-91.02222294-91.02222186l-728.17777706 0q-91.02222187 0-91.02222294 91.02222186l0 546.13333334q0 91.02222187 91.02222294 91.02222186ZM147.91111147 19.911111470000037l295.82222186 409.6 295.82222187-409.6zM466.48888853 19.911111470000037l204.8 273.06666666 204.8-273.06666666zM807.82222187 543.28888853m-68.26666667 0a68.26666667 68.26666667 0 1 1 136.53333333 0 68.26666667 68.26666667 0 1 1-136.53333333 0Z"  horiz-adv-x="1024" />

    
    <glyph glyph-name="gongju" unicode="&#58905;" d="M884.71976471 120.19937894999998L735.16837311 269.75077057l20.70236205 20.70236206-29.19960022 29.19960022-60.87112426-60.79387665-93.62411499 93.62411499L688.89704895 469.20412446c19.46640015-6.10256196 34.06620026-8.49723817 48.66600037-8.49723817 42.56343842 0 82.73220063 16.99447632 111.85455321 46.19407654 46.19407654 46.19407654 59.55791474 114.32647705 34.06620028 173.88439178l-12.1278763 26.7276764-70.52707672-70.52707673-43.79940033-1.2359619-1.23596191 42.56343841 72.99900055 72.99900055-27.96363831 10.96916198C778.89052582 770.77883149 757.02944946 775.64543152 737.56304932 775.64543152c-42.56343842 0-82.654953-16.99447632-111.85455323-46.19407654-42.56343842-42.56343842-57.16323852-105.82923889-37.69683838-160.52055359L471.21325683 452.20964813 304.66738891 617.5968017600001l20.70236206 20.70236206L203.70475005 758.6509552l-69.29111479-69.29111481 121.58775329-121.58775328 20.70236206 20.70236205 165.38715364-165.38715363-116.7984009-115.63968658c-15.83576203 6.10256196-31.59427643 8.49723817-49.82471465 8.49723816-42.56343842 0-82.654953-16.99447632-111.85455323-46.19407653-44.95811463-44.95811463-58.39920044-114.32647705-32.83023834-175.12035371l12.12787628-26.72767639 71.76303866 71.76303865 41.32747648 1.23596189-1.2359619-43.79940032-70.52707673-70.52707673 27.96363831-13.36383819c23.09703828-9.73320007 42.56343842-13.3638382 63.26580047-13.36383819 42.56343842 0 82.73220063 16.99447632 111.85455322 46.19407654 42.56343842 42.56343842 57.16323852 103.35731506 38.93280029 160.52055358l116.72115327 116.72115326 93.62411498-93.62411499-60.79387665-60.79387666 26.7276764-27.96363829L623.23657227 161.52685547l149.62863922-148.31542969c14.59980011-14.59980011 34.06620026-23.09703828 55.9272766-23.09703828 20.70236206 0 40.09151459 8.49723817 55.92727662 23.09703828 30.35831452 26.72767639 30.35831452 77.78835297 0 106.98795319z m-29.19960023-27.96363829c14.59980011-15.83576203 14.59980011-38.93280029 0-53.5326004-6.10256196-7.26127626-16.99447632-10.96916199-26.72767639-10.96916198-10.96916199 0-19.46640015 3.63063813-26.72767638 10.96916198L653.67213439 188.33177947000001l52.2966385 52.2966385 149.55139159-148.39267732zM383.69170379 202.85433196999998c18.23043823-44.95811463 8.49723817-96.09603882-24.33300017-130.08499145-25.56896211-25.56896211-60.79387665-37.69683838-97.25475313-34.06620026l35.30216218 35.30216216 1.23596191 103.35731507H197.67943573l-37.69683838-36.46087646c-4.86660004 36.46087646 7.26127626 71.76303862 32.83023835 97.25475311 32.83023834 32.83023834 82.654953 43.79940034 128.92627716 24.33300017l13.36383819-6.10256194 300.33874513 299.18003083-6.10256196 13.36383819c-19.46640015 43.79940034-9.73320007 94.8600769 24.33300019 128.92627716C676.76917267 720.95411682 705.96877289 733.15924073 737.56304932 733.15924073c4.86660004 0 9.73320007 0 15.83576202-1.23596192l-37.69683838-37.69683838-1.23596192-100.96263886 103.35731509 1.23596192 36.46087646 36.46087647c4.86660004-36.46087646-7.26127626-71.76303862-32.83023836-97.25475312-32.83023834-32.83023834-82.654953-43.79940034-130.08499145-24.33300018l-13.3638382 6.10256195-299.18003083-299.18003083 4.86660005-13.4410858zM266.97055054 638.2219162L254.76542663 626.09403993l-63.26580048 63.26580046 12.12787629 12.12787628 63.3430481-63.26580048z m0-1e-8M861.00474549 44.96019744l-10.27393342-10.2739334c-11.97338105-11.97338105-31.36253357-11.97338105-43.41316222 0L651.97268677 190.03122711000003l52.99186706 52.99186707 156.04019166-156.04019166c11.58714294-11.58714294 11.58714294-30.43556213 0-42.02270507zM191.58305359 690.14004135l12.12555886 12.12555885 63.25266837-63.2518959-12.12633133-12.12633133z"  horiz-adv-x="1024" />

    
    <glyph glyph-name="wangluo" unicode="&#58944;" d="M150 384.2a348.1 348.1 0 1 1 696.2 0 348.1 348.1 0 1 1-696.2 0zM415.3 152.1c-99.5 49.7-240.4 41.4-149.2 232.1 31.8 66.6-28.2 99.4-98.3 109.8-11.5-34.5-17.8-71.4-17.8-109.8 0-185.1 144.5-336.3 326.8-347.4 3.3 37.6-5.1 87.1-61.5 115.3zM630.8 409s41.4-49.7-24.9-66.3c-66.3-16.6-107.7-49.7-91.2-116s0-66.3 91.2-58 116 91.2 116 107.7c0 16.6 24.9 107.7-24.9 132.6-49.7 24.9-58 41.5-66.2 0zM957.9 455.9c-6.3 45.3-59.4 77.8-153.5 94.1h-0.2c6.5-12 12.3-24.4 17.4-37.2 61.7-13.7 99.9-36.1 103.5-61.5 4-28.4-34.6-65.1-103.3-98.2-76.2-36.8-180.7-65.8-294.2-81.7-113.5-15.9-221.9-16.7-305.3-2.3-75.1 13-122.4 37.7-126.3 66-2.9 20.9 17.3 46.3 55.7 71.5-0.2 0.3-0.5 0.5-0.7 0.7 0.9 13.9 2.7 27.5 5.2 40.8-66.5-37.4-98.6-77.8-93-117.7 6.3-45.3 59.4-77.8 153.5-94.1 41.4-7.1 88.5-10.7 139.1-10.7 55.5 0 115.3 4.3 176.4 12.8 116.8 16.4 224.7 46.4 304 84.7 85.9 41.6 128 87.5 121.7 132.8zM514.9 731.9c-5.5 0.2-11.1 0.4-16.7 0.4-125.4 0-235.2-66.3-296.5-165.7 53.4 0.6 97.9 25.6 110.5 59.3 9.3-0.9 18.8-1.4 28.5-1.4 59.3 0 111.9 17.4 145.1 44.3 9.1-6.9 22.4-11.2 37.2-11.2 0.6 0 1.1 0 1.6 0.1 5.4-26 29.6-98.3 130.6-95.8 0 0 61.5 1.5 90.1-123 0 0 64.1-25.6 81.9 58.8C781.9 629.2 660.1 725 514.9 731.9zM440.1 537.5a33.2 29 0 1 1 66.4 0 33.2 29 0 1 1-66.4 0zM536.418 527.458a12.4 20.7 53.921 1 1 14.605 20.044 12.4 20.7 53.921 1 1-14.605-20.044z"  horiz-adv-x="1024" />

    
    <glyph glyph-name="gongju1" unicode="&#58984;" d="M499.52 362.66666667000004c-46.18666667 0-83.84 37.54666667-83.84 83.84H360.53333333c0-3.84 0.10666667-7.68 0.42666667-11.41333334 5.86666667-71.36 65.70666667-127.68 138.56-127.68 71.04 0 129.81333333 53.54666667 138.02666667 122.34666667 0.64 5.44 0.96 11.09333333 0.96 16.74666667h-55.25333334c0.10666667-46.18666667-37.54666667-83.84-83.73333333-83.84zM869.44 2.8799999999999955H129.6c-29.65333333 0-53.76 24.10666667-53.76 53.76V612.26666667c0 29.65333333 24.10666667 53.76 53.76 53.76h739.94666667c29.65333333 0 53.76-24.10666667 53.76-53.76v-555.62666667c0-29.65333333-24.10666667-53.76-53.86666667-53.76z m-729.06666667 64.53333333h718.4V601.49333333H140.37333333v-534.08zM120.21333333 470.72H878.93333333v-64.53333333H120.21333333zM330.24 616h-64.53333333v108.8c0 29.01333333 23.57333333 52.58666667 52.58666666 52.58666667h362.45333334c29.01333333 0 52.58666667-23.57333333 52.58666666-52.58666667v-101.65333333H668.8v89.70666666H330.24v-96.85333333z"  horiz-adv-x="1024" />

    
    <glyph glyph-name="wangluo_" unicode="&#58918;" d="M512 377.59999969m-448.00000031 0a448.00000031 448.00000031 0 1 1 896.00000062 0 448.00000031 448.00000031 0 1 1-896.00000062 0ZM512 697.60000031s-6.40000031 0 0 0h-6.40000031-6.39999938c-172.8-12.79999969-307.2-153.6-307.2-320.00000062s134.4-313.60000031 307.2-319.99999969h12.79999969c179.20000031 0 319.99999969 140.80000031 319.99999969 319.99999969s-140.80000031 319.99999969-319.99999969 320.00000062z m281.59999969-307.2h-115.2c0 51.19999969-6.40000031 96-19.2 134.4 19.2 6.40000031 44.80000031 12.79999969 64.00000031 25.59999938l6.40000031 6.40000031c38.4-44.80000031 57.6-102.40000031 63.99999938-166.39999969z m-396.79999969-198.40000031c31.99999969 6.40000031 64.00000031 12.79999969 96 12.79999969v-115.2h-6.40000031c-31.99999969 12.79999969-64.00000031 51.19999969-89.59999969 102.40000031z m6.40000031-76.8c-31.99999969 12.79999969-57.6 31.99999969-83.20000031 51.19999969 12.79999969 6.40000031 25.60000031 12.79999969 44.80000031 19.2 6.40000031-31.99999969 25.60000031-51.19999969 38.4-70.39999969z m83.19999938 544.00000031s6.40000031 0 0 0L492.8 544.00000031c-31.99999969 0-64.00000031 6.40000031-96 12.79999969 25.60000031 57.6 57.6 89.59999969 89.59999969 102.40000031zM364.80000031 569.59999969c-19.2 0-31.99999969 6.40000031-44.80000031 12.80000062 25.60000031 25.60000031 51.19999969 44.80000031 83.20000031 57.6-12.79999969-19.2-31.99999969-44.80000031-38.4-70.40000062z m166.39999969 83.20000031c31.99999969-12.79999969 64.00000031-51.19999969 83.20000031-102.40000031-31.99999969 0-57.6-6.40000031-83.20000031-6.39999938V652.8z m70.39999969-6.40000031c38.4-12.79999969 70.39999969-38.4 102.40000031-63.99999938l-57.6-19.2c-12.79999969 31.99999969-25.60000031 57.6-44.80000031 83.19999938zM492.8 511.99999969v-115.2h-127.99999969c0 44.80000031 6.40000031 89.59999969 19.2 128.00000062 38.4-12.79999969 70.39999969-12.79999969 108.79999969-12.80000062z m0-153.6v-115.2c-38.4 0-70.39999969-6.40000031-108.79999969-12.79999969-12.79999969 38.4-19.2 83.20000031-19.2 127.99999969h127.99999969z m38.4-262.39999969v108.79999969c25.60000031 0 57.6-6.40000031 83.20000031-6.39999938-25.60000031-51.19999969-51.19999969-89.59999969-83.20000031-102.40000031z m115.2 89.59999969l57.6-19.2c-31.99999969-25.60000031-64.00000031-44.80000031-102.40000031-57.6 19.2 19.2 31.99999969 44.80000031 44.80000031 76.8z m-115.2 57.6V358.39999968999996h115.2c0-44.80000031-6.40000031-89.59999969-19.2-127.99999969-31.99999969 6.40000031-64.00000031 12.79999969-96 12.79999969z m0 147.20000062V511.99999969c31.99999969 0 64.00000031 6.40000031 96 12.80000062 12.79999969-38.4 19.2-83.20000031 19.2-128.00000062H531.2zM294.39999969 556.8c19.2-12.79999969 38.4-19.2 57.6-25.60000031-12.79999969-38.4-19.2-89.59999969-25.59999938-140.79999938H230.40000031c0 64.00000031 25.60000031 121.60000031 63.99999938 166.39999969z m-63.99999938-198.40000031h102.39999938c0-51.19999969 6.40000031-96 19.2-140.79999938-19.2-6.40000031-31.99999969-12.79999969-51.19999969-19.2l-6.40000031-6.40000031c-38.4 44.80000031-64.00000031 102.40000031-63.99999938 166.39999969z m499.2-166.39999969s-6.40000031 6.40000031 0 0c-25.60000031 12.79999969-44.80000031 19.2-70.40000062 25.60000031 12.79999969 38.4 19.2 89.59999969 19.2 134.4h115.2c-6.40000031-57.6-25.60000031-115.2-63.99999938-160.00000031z"  horiz-adv-x="1024" />

    
    <glyph glyph-name="huabanfuben" unicode="&#58919;" d="M668.22723243 828.85042403A385.27224263 385.27224263 0 0 1 220.72888889 485.94488889a233.2816805 233.2816805 0 0 0 62.49089252 2.6479195A227.72105102 227.72105102 0 0 0 485.52080839 256.37029547a339.99282403 339.99282403 0 0 0-77.58403242-195.94602041 862.95686485 862.95686485 0 0 1 169.20203605-119.95073991 56.13588707 56.13588707 0 0 1 52.95838435 0c82.87987029 43.42587506 332.04906667 195.41643605 356.67471474 462.85627506A387.39057778 387.39057778 0 0 1 668.22723243 828.85042403zM603.61800363 304.56242403a138.75096576 138.75096576 0 1 0 138.75096576 138.75096576A139.01575737 139.01575737 0 0 0 603.61800363 304.56242403zM218.34576213 448.6092288a348.99574898 348.99574898 0 0 0 2.38312676 37.33566009 225.07313152 225.07313152 0 0 1-185.35434354-221.36604444c0-158.87515193 139.81013333-277.23713991 199.12352313-319.86863787a44.22025102 44.22025102 0 0 1 52.95838435 0 606.90307869 606.90307869 0 0 1 121.2746991 115.71406848c-95.85467506 87.11654173-190.38538979 217.65895737-190.3853898 388.18495374zM282.95498979 488.59280839a233.2816805 233.2816805 0 0 1-62.49089251-2.6479195 348.99574898 348.99574898 0 0 1-2.11833515-37.33566009c0-171.58516395 94.53071474-301.06841202 189.85580544-388.18495374a339.99282403 339.99282403 0 0 1 77.31924082 195.94602041 227.72105102 227.72105102 0 0 1-202.5658186 232.22251292zM282.95498979 488.59280839a233.2816805 233.2816805 0 0 1-62.49089251-2.6479195 348.99574898 348.99574898 0 0 1-2.11833515-37.33566009c0-171.58516395 94.53071474-301.06841202 189.85580544-388.18495374a339.99282403 339.99282403 0 0 1 77.31924082 195.94602041 227.72105102 227.72105102 0 0 1-202.5658186 232.22251292z"  horiz-adv-x="1024" />

    
    <glyph glyph-name="video" unicode="&#58916;" d="M80 861.6h864v-960H80zM176 784m-40 0a40 40 0 1 1 80 0 40 40 0 1 1-80 0ZM176 624m-40 0a40 40 0 1 1 80 0 40 40 0 1 1-80 0ZM176 464m-40 0a40 40 0 1 1 80 0 40 40 0 1 1-80 0ZM176 304m-40 0a40 40 0 1 1 80 0 40 40 0 1 1-80 0ZM176 144m-40 0a40 40 0 1 1 80 0 40 40 0 1 1-80 0ZM176-16m-40 0a40 40 0 1 1 80 0 40 40 0 1 1-80 0ZM864 784m-40 0a40 40 0 1 1 80 0 40 40 0 1 1-80 0ZM864 624m-40 0a40 40 0 1 1 80 0 40 40 0 1 1-80 0ZM864 464m-40 0a40 40 0 1 1 80 0 40 40 0 1 1-80 0ZM864 304m-40 0a40 40 0 1 1 80 0 40 40 0 1 1-80 0ZM864 144m-40 0a40 40 0 1 1 80 0 40 40 0 1 1-80 0ZM864-16m-40 0a40 40 0 1 1 80 0 40 40 0 1 1-80 0ZM648 388L436 533.6c-4.8 3.2-11.2 4-16.8 0.8-5.6-3.2-8.8-8.8-8.8-14.4v-290.4c0-5.6 3.2-11.2 8.8-14.4 5.6-3.2 12-2.4 16.8 0.8L648 362.4c4.8 2.4 7.2 8 7.2 12.8 0 4.8-3.2 9.6-7.2 12.8z"  horiz-adv-x="1024" />

    
    <glyph glyph-name="share-link-copy" unicode="&#60175;" d="M767.77006719 655.0683975L355.91611906 417.22513125l-38.07449625 65.91598031 411.85394813 237.78350157 38.07449625-65.9150475v0.05883187z m-38.07449625-599.72560594L317.84162281 293.12722594l38.07449625 65.91598125L767.77006719 121.31760374999999l-38.07449625-65.91598031v-0.05976563zM603.2191775 673.3921921900001a190.25108062 190.25108062 0 1 1 380.44239563 0 190.25108062 190.25108062 0 0 1-380.44239563 0zM32.5247675 388.07440312a190.25108062 190.25108062 0 1 1 380.44239563 0 190.25108062 190.25108062 0 0 1-380.44239563 0z m570.69441-285.31685531a190.25108062 190.25108062 0 1 1 380.44239563 0 190.25108062 190.25108062 0 0 1-380.44239563 0z"  horiz-adv-x="1024" />

    
    <glyph glyph-name="share-link" unicode="&#58915;" d="M767.77006719 655.0683975L355.91611906 417.22513125l-38.07449625 65.91598031 411.85394813 237.78350157 38.07449625-65.9150475v0.05883187z m-38.07449625-599.72560594L317.84162281 293.12722594l38.07449625 65.91598125L767.77006719 121.31760374999999l-38.07449625-65.91598031v-0.05976563zM603.2191775 673.3921921900001a190.25108062 190.25108062 0 1 1 380.44239563 0 190.25108062 190.25108062 0 0 1-380.44239563 0zM32.5247675 388.07440312a190.25108062 190.25108062 0 1 1 380.44239563 0 190.25108062 190.25108062 0 0 1-380.44239563 0z m570.69441-285.31685531a190.25108062 190.25108062 0 1 1 380.44239563 0 190.25108062 190.25108062 0 0 1-380.44239563 0z"  horiz-adv-x="1024" />

    
    <glyph glyph-name="folder-simple" unicode="&#59072;" d="M876.08888853 657.06666667H466.48888853l-91.02222186 91.02222186H147.91111147c-50.06222187 0-91.02222187-40.96-91.02222294-91.02222186v-182.0444448h910.22222294v91.02222293c0 50.06222187-40.96 91.02222187-91.02222294 91.02222187zM876.08888853 657.06666667H147.91111147c-50.06222187 0-91.02222187-40.96-91.02222294-91.02222187v-455.11111147c0-50.06222187 40.96-91.02222187 91.02222294-91.02222186h728.17777706c50.06222187 0 91.02222187 40.96 91.02222294 91.02222186V566.0444448000001c0 50.06222187-40.96 91.02222187-91.02222294 91.02222187z"  horiz-adv-x="1024" />

    
    <glyph glyph-name="folder1" unicode="&#58903;" d="M62 648.14882227V790.97821583a42.84881807 42.84881807 0 0 0 42.84881807 42.84881805h314.22466494c62.01652237 3.34220801 57.13175742-42.84881807 57.13175741-42.84881806s11.6405956-43.70579473 114.26351398-42.84881806h457.05405849a42.84881807 42.84881807 0 0 0 42.84881807-42.84881807v-57.13175742c-43.80577471-0.54275185-984.56585537-0.74271269-1028.37163096 0zM62 648.14882227v-667.54173428A47.04800185 47.04800185 0 0 1 109.46220752-65.99814287000004h933.44721592A47.04800185 47.04800185 0 0 1 1090.37163096-19.392912010000032V648.14882227H62zM90.56587872 676.71470098h971.23987352v-28.56587871H90.56587872z"  horiz-adv-x="1170" />

    
    <glyph glyph-name="user" unicode="&#58897;" d="M474.4 498.29c11-2.53 22.47-3.87 34.24-3.87s23.24 1.34 34.24 3.87c67.47 15.53 117.77 75.95 117.77 148.14 0 83.95-68.05 152.01-152.01 152.01-83.95 0-152.01-68.06-152.01-152.01 0-72.19 50.31-132.61 117.77-148.14zM814.386 502.397m-120.01 0a120.01 120.01 0 1 1 240.02 0 120.01 120.01 0 1 1-240.02 0ZM843.26 353.87h-71.75c-10.49 0-20.66-1.39-30.32-4.01v-384.04h166.03c28.82 0 52.18 23.36 52.18 52.18V237.74c0 64.14-52 116.13-116.14 116.13zM120.506596 417.537291a120.01 120.01 0 1 1 169.716808 169.722732 120.01 120.01 0 1 1-169.716808-169.722732ZM180.49 353.87c-64.14 0-116.13-51.99-116.13-116.13V18c0-28.82 23.36-52.18 52.17-52.18h159.56v385.6c-7.69 1.61-15.67 2.45-23.84 2.45h-71.76zM669.502-33.23000000000002H352.966c-18.63 0-33.732 15.102-33.732 33.732V309.779c0 76.222 61.79 138.013 138.013 138.013h107.975c76.222 0 138.013-61.79 138.013-138.013v-309.277c-0.001-18.63-15.103-33.732-33.733-33.732z"  horiz-adv-x="1024" />

    
    <glyph glyph-name="folder2" unicode="&#58908;" d="M62 695.53846114h1038.46153886a69.23076943 69.23076943 0 0 0 69.23076856-69.23076856v-623.07692315a69.23076943 69.23076943 0 0 0-69.23076856-69.23076943H131.23076943a69.23076943 69.23076943 0 0 0-69.23076943 69.23076943V695.53846114zM62 695.53846114h553.84615372L565.72307685 795.71538427A69.23076943 69.23076943 0 0 1 503.83076943 834H131.23076943a69.23076943 69.23076943 0 0 1-69.23076943-69.23076943v-69.23076944z"  horiz-adv-x="1260" />

    
    <glyph glyph-name="folder-personal" unicode="&#58904;" d="M985.6 649.6C976 659.2 964 664 952 664H480L374.4 769.6c-4 4-9.6 8-15.2 10.4-6.4 2.4-12 4-18.4 4H88c-12 0-24.8-4.8-33.6-14.4S40 748 40 736v-280h960V616c0 12-4.8 24.8-14.4 33.6zM952-24H88c-26.4 0-48 21.6-48 48V536h960v-512c0-26.4-21.6-48-48-48zM728 87.2c0-10.4-8-18.4-18.4-18.4H346.4c-10.4 0-18.4 8-18.4 18.4 0 0 0 68 49.6 92.8 32 16 19.2 3.2 58.4 19.2 38.4 16 48 21.6 48 21.6v36.8s-14.4 11.2-19.2 45.6c-8.8-2.4-12 10.4-12.8 19.2-0.8 8-5.6 33.6 5.6 31.2-2.4 16.8-4 32.8-3.2 40.8 2.4 28.8 30.4 58.4 72.8 60.8 49.6-2.4 69.6-32 72.8-60.8 0.8-8-0.8-23.2-3.2-40.8 11.2 2.4 6.4-23.2 5.6-31.2-0.8-8.8-3.2-21.6-12.8-19.2-4.8-35.2-19.2-45.6-19.2-45.6v-36.8s8.8-5.6 48-21.6c38.4-16 26.4-4 58.4-20 51.2-23.2 51.2-92 51.2-92z"  horiz-adv-x="1024" />

    
    <glyph glyph-name="bumenguanli" unicode="&#58910;" d="M234.8-32c17.3 0 31.3 14 31.3 31.3V138.6c0 17.3-14 31.3-31.3 31.3H95.5c-17.3 0-31.3-14-31.3-31.3v-139.3c0-17.3 14-31.3 31.3-31.3h139.3zM581.4-32c17.3 0 31.3 14 31.3 31.3V138.6c0 17.3-14 31.3-31.3 31.3H442.1c-17.3 0-31.3-14-31.3-31.3v-139.3c0-17.3 14-31.3 31.3-31.3h139.3zM581.4 576.2c17.3 0 31.3 14 31.3 31.3V746.8c0 17.3-14 31.3-31.3 31.3H442.1c-17.3 0-31.3-14-31.3-31.3v-139.3c0-17.3 14-31.3 31.3-31.3h139.3zM928-32c17.3 0 31.3 14 31.3 31.3V138.6c0 17.3-14 31.3-31.3 31.3H788.7c-17.3 0-31.3-14-31.3-31.3v-139.3c0-17.3 14-31.3 31.3-31.3H928zM883.4 162.6h-50.1V319.5c0 6-7.2 11.2-15.3 11.2H205.5c-8.3 0-15.3-5.1-15.3-11.2v-156.9h-50.1V319.5c0 33.8 29.3 61.3 65.4 61.3H818c36.1 0 65.4-27.5 65.4-61.3v-156.9zM486.7 512.6h50.1v-350h-50.1z"  horiz-adv-x="1024" />

    
    <glyph glyph-name="bumen" unicode="&#58926;" d="M912.21333333 581.9733333300001L587.09333333 791.89333333c-22.4 13.44-46.93333333 20.26666667-72.96 20.26666667-26.02666667 0-50.56-6.82666667-73.81333333-20.8L110.61333333 582.0799999999999c-12.16-7.68-19.41333333-21.22666667-19.2-35.62666667 0.21333333-14.4 7.89333333-27.62666667 20.37333334-34.98666666l3.84-2.24 1.17333333-319.46666667 296.96-183.57333333 40.96-22.18666667 84.16-11.73333333 53.76 32.74666666 294.61333333 169.49333334 19.84 53.76s-9.38666667 104-9.38666666 112.21333333V483.09333333c0 5.22666667-1.17333333 12.37333333-2.56 19.09333334l15.68 9.28c12.37333333 7.36 20.05333333 20.48 20.37333333 34.88 0.21333333 14.29333333-6.93333333 27.84-18.98666667 35.62666666zM462.50666667 756.37333333c14.29333333 8.64 31.57333333 14.29333333 51.62666666 14.29333334 20.05333333 0 37.22666667-5.76 51.62666667-14.29333334l323.94666667-209.28-315.30666667-186.34666666c-20.05333333-11.41333333-40.10666667-17.17333333-63.04-17.17333334s-42.98666667 5.76-63.04 17.17333334L132.8 547.09333333l329.70666667 209.28zM933.97333333 466.66666667c0.10666667 11.2-16.42666667-8.74666667-16.42666666-19.41333334l-2.56-42.45333333c0-7.04-3.84-13.54666667-10.24-17.17333333L577.06666667 200.64c-18.13333333-9.92-36.26666667-14.93333333-56.96-14.93333333s-38.82666667 5.01333333-56.96 14.93333333L152.42666667 377.17333333l-34.34666667 19.52c-6.29333333 3.62666667-10.24 10.13333333-10.24 17.17333334l-2.77333333 43.52c0 10.77333333 25.06666667 19.41333333 13.86666666 19.41333333s-5.33333333-10.24-5.33333333-20.90666667l-14.82666667-60.90666666c0-4.26666667-6.18666667-25.6-5.12-26.24l350.72-199.25333334c24.10666667-13.22666667 48.85333333-19.62666667 75.52-19.62666666s51.41333333 6.4 76.05333334 19.84l334.50666666 190.93333333c0.74666667 0.21333333 3.41333333 92.69333333 3.52 106.02666667zM930.24 185.49333333000004c0.10666667 0.64 0.42666667 1.28 0.42666667 1.92l4.37333333 368.10666667c0 12.37333333-10.02666667 22.4-22.4 22.4s-22.4-10.02666667-22.4-22.4l-4.37333333-346.56c0-7.68-4.05333333-14.82666667-10.66666667-18.77333333L573.97333333 11.946666670000013c-20.05333333-11.52-40.10666667-17.17333333-63.04-17.17333334s-42.98666667 5.76-63.04 17.17333334L147.52 189.65333333c-6.61333333 3.94666667-10.77333333 11.09333333-10.77333333 18.77333334l-4.37333334 348.48c0 12.37333333-10.02666667 22.4-22.4 22.4s-22.4-10.02666667-22.4-22.4l4.37333334-369.49333334c0-4.90666667 1.92-9.17333333 4.48-12.8 0.53333333-0.74666667 0.96-1.6 1.49333333-2.24 0.64-0.64 1.28-1.17333333 1.92-1.70666666 1.06666667-0.96 1.92-2.13333333 3.30666667-2.88l324.05333333-191.78666667c26.66666667-15.25333333 54.08-22.61333333 83.62666667-22.61333333s56.96 7.36 84.16 22.93333333l321.81333333 190.50666667c0.32 0.10666667 0.53333333 0.32 0.85333333 0.53333333l2.77333334 1.70666667c0.42666667 0.21333333 0.64 0.64 1.06666666 0.96 1.28 0.96 2.45333333 1.92 3.41333334 3.09333333 1.28 1.38666667 2.24 2.88 3.09333333 4.58666667 0.32 0.64 0.74666667 1.28 0.96 2.02666666 0.85333333 1.70666667 1.17333333 3.62666667 1.28 5.76zM125.22666667 371.73333333000005m-18.13333334 0a18.13333333 18.13333333 0 1 1 36.26666667 0 18.13333333 18.13333333 0 1 1-36.26666667 0ZM895.46666667 361.70666667m-18.13333334 0a18.13333333 18.13333333 0 1 1 36.26666667 0 18.13333333 18.13333333 0 1 1-36.26666667 0ZM135.14666667 345.17333333L115.62666667 356.26666666999995l19.52 1.28 2.34666666-9.06666667zM887.36 335.89333333l18.02666667 10.66666667-8.96 9.06666667-15.25333334-6.18666667 0.42666667-10.02666667z"  horiz-adv-x="1024" />

    
    <glyph glyph-name="folder-yellow" unicode="&#58937;" d="M62 678.8069487299999h1044.6102624A79.42435489 79.42435489 0 0 0 1186.99085937 600.39508594v-587.97647315A79.42435489 79.42435489 0 0 0 1106.6102624-65.99325001H142.38059698A79.42435489 79.42435489 0 0 0 62 12.418612789999997zM140.24311455 833.9994375h391.215571a77.90561719 77.90561719 0 0 0 78.24311455-77.62436893v-77.62436984H62V756.37506855A77.90561719 77.90561719 0 0 0 140.24311455 833.9994375z"  horiz-adv-x="1280" />

    
    <glyph glyph-name="folder-share_link" unicode="&#59491;" d="M32 804h354l63-60H992v-213H32zM32 654h960v-690H32zM32 654h960v-690H32zM602 474l-270-156 30-54 270 156zM608 144L332 267l24 57 276-123zM617 459m-75 0a75 75 0 1 1 150 0 75 75 0 1 1-150 0ZM617 189m-75 0a75 75 0 1 1 150 0 75 75 0 1 1-150 0ZM347 309m-75 0a75 75 0 1 1 150 0 75 75 0 1 1-150 0Z"  horiz-adv-x="1024" />

    
    <glyph glyph-name="Folder" unicode="&#58886;" d="M1086.62702276 720.34166836H676.81403633a54.46522354 54.46522354 0 0 0-36.12103331 11.15780625s-18.91153565 25.71968935-48.22441698 66.37949121a76.78083604 76.78083604 0 0 1-69.97268321 35.93191905H156.55767998C64.08026914 833.81088487 62 756.84093281 62 756.84093281v-718.63836943a9.45576826 9.45576826 0 0 0 9.45576826 9.26665313h1077.95755371a9.45576826 9.45576826 0 0 0 9.45576826-9.45576826V657.9335994099999c0 68.83799151-72.24206748 62.40806895-72.24206747 62.40806895zM1149.41332198-9.265392189999943H71.45576826a9.45576826 9.45576826 0 0 0-9.45576826 9.45576826v-9.45576826a56.73460781 56.73460781 0 0 1 56.73460781-56.73460781h983.39987461a56.73460781 56.73460781 0 0 1 56.73460781 56.73460781v9.45576826a9.45576826 9.45576826 0 0 0-9.45576825-9.45576826z m-18.91153565-37.82307216h-1040.13448242a9.45576826 9.45576826 0 0 0 0 18.91153652h1040.13448242a9.45576826 9.45576826 0 0 0 0-18.91153652zM1149.41332198 28.55767997999999H71.45576826a9.45576826 9.45576826 0 0 0-9.45576826 9.45576826v-37.82307217a9.45576826 9.45576826 0 0 0 9.45576826 9.45576826h1077.95755371a9.45576826 9.45576826 0 0 0 9.45576826-9.45576826v37.82307217a9.45576826 9.45576826 0 0 0-9.45576826-9.45576826zM1149.41332198 9.646144339999978H71.45576826a9.45576826 9.45576826 0 0 1 0-18.91153653h1077.95755371a9.45576826 9.45576826 0 0 1 0 18.91153652zM1130.50178633-28.176927829999954h-1040.13448242a9.45576826 9.45576826 0 0 1 0-18.91153652h1040.13448242a9.45576826 9.45576826 0 0 1 0 18.91153652zM1149.41332198 47.469216510000024H71.45576826a9.45576826 9.45576826 0 0 1 0-18.91153653h1077.95755371a9.45576826 9.45576826 0 0 1 0 18.91153653z"  horiz-adv-x="1247" />

    
    <glyph glyph-name="folder-group" unicode="&#58912;" d="M977.6 649.6C968 659.2 956 664 944 664H472L366.4 769.6c-4 4-9.6 8-15.2 10.4-6.4 2.4-12 4-18.4 4H80c-12 0-24.8-4.8-33.6-14.4S32 748 32 736v-280h960V616c0 12-4.8 24.8-14.4 33.6zM944-24H80c-26.4 0-48 21.6-48 48V536h960v-512c0-26.4-21.6-48-48-48zM782.4 136.8c0-8-6.4-13.6-13.6-13.6H501.6c-8 0-13.6 6.4-13.6 13.6 0 0 0 50.4 36.8 68.8C548 216.8 539.2 208 568 220s35.2 16 35.2 16v27.2s-10.4 8-14.4 33.6c-6.4-1.6-8.8 8-9.6 14.4 0 6.4-4 24.8 4 23.2-1.6 12.8-3.2 24-2.4 29.6 2.4 20.8 22.4 43.2 53.6 44.8 36.8-1.6 51.2-23.2 53.6-44.8 0.8-5.6-0.8-17.6-2.4-29.6 8 1.6 4.8-16.8 4-23.2 0-6.4-2.4-16-9.6-14.4-3.2-25.6-14.4-33.6-14.4-33.6V236s6.4-4 35.2-16 19.2-3.2 43.2-14.4c38.4-18.4 38.4-68.8 38.4-68.8zM640 87.2c0-10.4-8-18.4-18.4-18.4H258.4c-10.4 0-18.4 8-18.4 18.4 0 0 0 68 49.6 92.8 32 16 19.2 3.2 58.4 19.2 38.4 16 48 21.6 48 21.6v36.8s-14.4 11.2-19.2 45.6c-8.8-2.4-12 10.4-12.8 19.2-0.8 8-5.6 33.6 5.6 31.2-2.4 16.8-4 32.8-3.2 40.8 2.4 28.8 30.4 58.4 72.8 60.8 49.6-2.4 69.6-32 72.8-60.8 0.8-8-0.8-23.2-3.2-40.8 11.2 2.4 6.4-23.2 5.6-31.2-0.8-8.8-3.2-21.6-12.8-19.2-4.8-35.2-19.2-45.6-19.2-45.6v-36.8s8.8-5.6 48-21.6c38.4-16 26.4-4 58.4-20 51.2-23.2 51.2-92 51.2-92z"  horiz-adv-x="1024" />

    
    <glyph glyph-name="folder-group-blue" unicode="&#60178;" d="M977.6 649.6C968 659.2 956 664 944 664H472L366.4 769.6c-4 4-9.6 8-15.2 10.4-6.4 2.4-12 4-18.4 4H80c-12 0-24.8-4.8-33.6-14.4S32 748 32 736v-280h960V616c0 12-4.8 24.8-14.4 33.6zM944-24H80c-26.4 0-48 21.6-48 48V536h960v-512c0-26.4-21.6-48-48-48zM782.4 136.79999999999995c0-8-6.4-13.6-13.6-13.6H501.6c-8 0-13.6 6.4-13.6 13.6 0 0 0 50.4 36.8 68.8C548 216.79999999999995 539.2 208 568 220s35.2 16 35.2 16v27.2s-10.4 8-14.4 33.6c-6.4-1.6-8.8 8-9.6 14.4 0 6.4-4 24.8 4 23.2-1.6 12.8-3.2 24-2.4 29.6 2.4 20.8 22.4 43.2 53.6 44.8 36.8-1.6 51.2-23.2 53.6-44.8 0.8-5.6-0.8-17.6-2.4-29.6 8 1.6 4.8-16.8 4-23.2 0-6.4-2.4-16-9.6-14.4-3.2-25.6-14.4-33.6-14.4-33.6V236s6.4-4 35.2-16 19.2-3.2 43.2-14.4c38.4-18.4 38.4-68.8 38.4-68.8zM640 87.20000000000005c0-10.4-8-18.4-18.4-18.4H258.4c-10.4 0-18.4 8-18.4 18.4 0 0 0 68 49.6 92.8 32 16 19.2 3.2 58.4 19.2 38.4 16 48 21.6 48 21.6v36.8s-14.4 11.2-19.2 45.6c-8.8-2.4-12 10.4-12.8 19.2-0.8 8-5.6 33.6 5.6 31.2-2.4 16.8-4 32.8-3.2 40.8 2.4 28.8 30.4 58.4 72.8 60.8 49.6-2.4 69.6-32 72.8-60.8 0.8-8-0.8-23.2-3.2-40.8 11.2 2.4 6.4-23.2 5.6-31.2-0.8-8.8-3.2-21.6-12.8-19.2-4.8-35.2-19.2-45.6-19.2-45.6v-36.8s8.8-5.6 48-21.6c38.4-16 26.4-4 58.4-20 51.2-23.2 51.2-92 51.2-92z"  horiz-adv-x="1024" />

    
    <glyph glyph-name="folder-public" unicode="&#60176;" d="M985.6 649.6C976 659.2 964 664 952 664H480L374.4 769.6c-4 4-9.6 8-15.2 10.4-6.4 2.4-12 4-18.4 4H88c-12 0-24.8-4.8-33.6-14.4S40 748 40 736v-280h960V616c0 12-4.8 24.8-14.4 33.6zM952-24H88c-26.4 0-48 21.6-48 48V536h960v-512c0-26.4-21.6-48-48-48zM728 87.20000000000005c0-10.4-8-18.4-18.4-18.4H346.4c-10.4 0-18.4 8-18.4 18.4 0 0 0 68 49.6 92.8 32 16 19.2 3.2 58.4 19.2 38.4 16 48 21.6 48 21.6v36.8s-14.4 11.2-19.2 45.6c-8.8-2.4-12 10.4-12.8 19.2-0.8 8-5.6 33.6 5.6 31.2-2.4 16.8-4 32.8-3.2 40.8 2.4 28.8 30.4 58.4 72.8 60.8 49.6-2.4 69.6-32 72.8-60.8 0.8-8-0.8-23.2-3.2-40.8 11.2 2.4 6.4-23.2 5.6-31.2-0.8-8.8-3.2-21.6-12.8-19.2-4.8-35.2-19.2-45.6-19.2-45.6v-36.8s8.8-5.6 48-21.6c38.4-16 26.4-4 58.4-20 51.2-23.2 51.2-92 51.2-92z"  horiz-adv-x="1024" />

    
    </font>
</defs>
</svg>
